Watch GLORY 69 Prelims 720p

Watch GLORY 69 Prelims 720p DX-TV

 

 

wwe raw

 

 

 

 

dx-tv.com

 

 

 

 

Watch GLORY 69 Prelims 720p

 

 

 

 

 

Complete name : GLORY 69 Dusseldorf Prelims.mp4
Format : MPEG-4
Format profile : Base Media
File size : 1.33 GiB
Duration : 10 s 834 ms
Overall bit rate mode : Variable
Overall bit rate : 1 051 Mb/s
Writing application : Lavf58.29.100

Video
ID : 1
Format : AVC
Duration : 6 s 990 ms
Bit rate : 1 518 Mb/s
Width : 1 280 pixels
Height : 720 pixels
Display aspect ratio : 16:9
Frame rate mode : Variable
Frame rate : 25 640.811 FPS
Minimum frame rate : 30.000 FPS
Maximum frame rate : 90 000.000 FPS
Color space : YUV
Chroma subsampling : 4:2:0
Bit depth : 8 bits
Scan type : Progressive
Bits/(Pixel*Frame) : 0.064
Stream size : 1.24 GiB (93%)
Color range : Limited
Color primaries : BT.709
Transfer characteristics : BT.709
Matrix coefficients : BT.709
Codec configuration box : avcC

Audio
ID : 2
Format : AAC LC
Codec ID : mp4a-40-2
Duration : 10 s 834 ms
Bit rate mode : Variable
Bit rate : 69.2 Mb/s
Maximum bit rate : 149 Mb/s
Channel(s) : 2 channels
Channel layout : L R
Sampling rate : 48.0 kHz
Frame rate : 46.875 FPS (1024 SPF)
Compression mode : Lossy
Stream size : 89.4 MiB (7%)
Default : Yes

 

 

 

 

 

 

Watch online

 

 

Waiting finish converting video

 

 

Server 1

 

 

 

 

 

 

 

 

 

 

 

 

 

 

Server 2

 

 

 

 

 

 

 

 

 

 

 

 

 

 

 

Uploaded By Site DX-TV.com

 

 

 

 

 

Watch GLORY 69 Prelims 720p

 

 

 

 

 

 

Recommended For Free

 

 

 

4downfiles.org

 

 

 

ddl.to

 

 

 

earn4files.com

 

 

 

fileup.cc

 

 

 

uptobox.com

 

 

 

 

Download with high speed with Premium account

 

 

 

 

nitroflare.com

 

 

 

rapidgator.net

 

 

 

uploaded.net

 

 

 

uploadgig.com

 

 

 

 

 

 

Leave a Reply

Your email address will not be published. Required fields are marked *

16 − 2 =

WhatsApp chat