Watch Glory 61 Super Fight Series VanNostrand vs Glunder WEB SF63

Watch Glory 61 Super Fight Series VanNostrand vs Glunder WEB SF63

 

 

 

 


 

 

 

dx-tv.com

 

 

 

 

 
Complete name : Glory.61.SuperFight.Series.VanNostrand.vs.Glunder.WEB.h264-SF63.mp4
Format : MPEG-4
Format profile : Base Media
File size : 1.23 GiB
Duration : 1 h 55 min
Overall bit rate : 1 528 kb/s
Writing application : Lavf56.40.101

Video
ID : 1
Format : AVC
Format/Info : Advanced Video Codec
Codec ID : avc1
Codec ID/Info : Advanced Video Coding
Duration : 1 h 55 min
Bit rate : 1 441 kb/s
Width : 960 pixels
Height : 540 pixels
Display aspect ratio : 16:9
Frame rate mode : Constant
Frame rate : 29.970
Original frame rate : 29.970
Color space : YUV
Chroma subsampling : 4:2:0
Bit depth : 8 bits
Scan type : Progressive
Bits/(Pixel*Frame) : 0.093
Stream size : 1.16 GiB (94%)

Audio
ID : 2
Format : AAC
Format/Info : Advanced Audio Codec
Format profile : LC
Codec ID : mp4a-40-2
Duration : 1 h 55 min
Bit rate mode : Constant
Bit rate : 77.6 kb/s
Channel(s) : 2 channels
Channel positions : Front: L R
Sampling rate : 44.1 kHz
Frame rate : 43.066 FPS (1024 SPF)
Compression mode : Lossy
Stream size : 64.2 MiB (5%)
Default : Yes
Alternate group : 1

 

 

Watch Glory 61 Super Fight Series VanNostrand vs Glunder WEB SF63

 

 

 

 

Watch online

 

 

Waiting finish converting video

 

 

Server 1

 

 

 

 

 

 

 

 

Server 2

 

 

 

 


 

 

 

Uploaded By Site DX-TV.com

 

 

open rar file to see this password

 

 

 

The password : DX-TV.com

 

 

Uploaded.net + rapidgator.net

 

 

 

 

 

http://shrt10.com/4lZoK

 

 

 

 
http://shrt10.com/jdGBNN
 

 

 

 

 

Watch Glory 61 Super Fight Series VanNostrand vs Glunder WEB SF63

Leave a Reply

This site uses Akismet to reduce spam. Learn how your comment data is processed.