Watch Glory 61 HDTV VERUM /720p

Watch Glory 61 HDTV VERUM /720p

 

 

 

 


 

 

dx-tv.com

 

 

 

 

 

Complete name : Glory.61.720p.HDTV.x264-VERUM.mkv
Format : Matroska
Format version : Version 4
File size : 2.55 GiB
Duration : 2 h 0 min
Overall bit rate : 3 031 kb/s
Writing application : no_variable_data
Writing library : no_variable_data

Video
ID : 1
Format : AVC
Format/Info : Advanced Video Codec
Codec ID : V_MPEG4/ISO/AVC
Duration : 2 h 0 min
Bit rate : 2 714 kb/s
Width : 1 280 pixels
Height : 720 pixels
Display aspect ratio : 16:9
Frame rate mode : Constant
Frame rate : 50.000 FPS
Color space : YUV
Chroma subsampling : 4:2:0
Bit depth : 8 bits
Scan type : Progressive
Bits/(Pixel*Frame) : 0.059
Stream size : 2.28 GiB (90%)
Language : English
Default : Yes
Forced : No
Color range : Limited
Matrix coefficients : BT.709

Audio
ID : 2
Format version : Version 1
Format profile : Layer 2
Codec ID : A_MPEG/L2
Codec ID/Hint : MP2
Duration : 2 h 0 min
Bit rate mode : Constant
Bit rate : 256 kb/s
Channel(s) : 2 channels
Sampling rate : 48.0 kHz
Compression mode : Lossy
Stream size : 221 MiB (8%)
Language : English
Default : Yes
Forced : No
 

 

 

Watch Glory 61 720p HDTV VERUM

 

 

 

 

Watch online

 

 

Waiting finish converting video

 

 

Server 1

 

 

 

 

 

 

 

Server 2

 

 

 

 

 


 

 

 

 

 

Uploaded By Site DX-TV.com

 

 

 

open rar file to see this password

 

 

 

 

The password : DX-TV.com

 

 

 

 

Uploaded.net + rapidgator.net

 

 

 

 

http://shrt10.com/cmnI
 

 

http://shrt10.com/eMDG
 

 

http://shrt10.com/MCMdtmTN

 

 
http://shrt10.com/MwuH
 

 

 

 

 

 

Watch Glory 61 HDTV VERUM /720p

Leave a Reply

This site uses Akismet to reduce spam. Learn how your comment data is processed.