Watch Glory 57 Super Fight Series WEB DL /720p

Watch Glory 57 Super Fight Series WEB DL /720p

 

 

 

 


 

 

 

dx-tv.com

 

 

 

 

 
Complete name : Glory.57.Super.Fight.Series.WEB-DL.mp4
Format : MPEG-4
Format profile : Base Media
File size : 1.34 GiB
Duration : 2 h 5 min
Overall bit rate : 1 529 kb/s
Writing application : Lavf58.17.101

Video
ID : 1
Format : AVC
Format/Info : Advanced Video Codec
Codec ID : avc1
Codec ID/Info : Advanced Video Coding
Duration : 2 h 5 min
Bit rate : 1 442 kb/s
Width : 852 pixels
Height : 480 pixels
Display aspect ratio : 16:9
Frame rate mode : Constant
Frame rate : 29.970
Original frame rate : 29.970
Color space : YUV
Chroma subsampling : 4:2:0
Bit depth : 8 bits
Scan type : Progressive
Bits/(Pixel*Frame) : 0.118
Stream size : 1.26 GiB (94%)

Audio
ID : 2
Format : AAC
Format/Info : Advanced Audio Codec
Format profile : LC
Codec ID : mp4a-40-2
Duration : 2 h 5 min
Bit rate mode : Constant
Bit rate : 77.6 kb/s
Channel(s) : 2 channels
Channel positions : Front: L R
Sampling rate : 44.1 kHz
Frame rate : 43.066 FPS (1024 SPF)
Compression mode : Lossy
Stream size : 69.4 MiB (5%)
Default : Yes
Alternate group : 1

 

 

 

 

 

 

 
[EVENT]: Glory.57.Super.Fight.Series.720p.WEB-DL.mp4
[SIZE]: 3.86 GB
[SOURCE]: Fight Pass
[CONTAINER]: mp4
[RESOLUTION]: 1280 x 720 @ 29.970 FPS
[VIDEO]: H264 @ 4283 Kbps
[AUDIO]: AAC @ 126 kbps
[Length]: 02:05:06
[Language]: English

 

 

 

Watch Glory 57 Super Fight Series WEB DL /720p

 

 

 

 

Watch online

 

 

Waiting finish converting video

 

 

Server 1

 

 

 

 

 

 

 

 

 

 

 

 

 

 

 

 

 

Server 2

 

 

 

 

 

 

 


 

 

 

 

 

 

Uploaded By Site DX-TV.com

 

 

 

open rar file to see this password

 

 

 

 

The password : DX-TV.com

 

 

 

 

 

 

Uploaded.net + rapidgator.net

 

 

 

 

 
http://shrt10.com/6IPE
 

 

 

http://shrt10.com/YsEJXQxc
 

 

 

http://shrt10.com/EsnLhe

 
http://shrt10.com/2ztbv

 

 

 

 

 

 

 

 

Watch Glory 57 Super Fight Series WEB DL /720p