Watch GLORY 52 Los Angeles Main Card 720p TotAnon mp4

Watch GLORY 52 Los Angeles Main Card 720p TotAnon mp4

 

 

 

 

 

 

wwe

 

 

 

 

 

 

 

 
Complete name : GLORY.52.Los.Angeles.Main.Card.720p-TotAnon.mp4
Format : MPEG-4
Format profile : Base Media
Codec ID : isom
File size : 1.46 GiB
Duration : 1h 58mn
Overall bit rate : 1 761 Kbps
Movie name : GLORY.52.MAIN.CARD.mp4
Encoded date : UTC 2018-04-01 00:00:00
Tagged date : UTC 2018-04-01 00:00:00
Writing application : eRightSoft(C)

Video
ID : 1
Format : AVC
Format/Info : Advanced Video Codec
Format profile : [email protected]
Codec ID : avc1
Codec ID/Info : Advanced Video Coding
Duration : 1h 58mn
Bit rate mode : Variable
Bit rate : 1 622 Kbps
Width : 1 280 pixels
Height : 720 pixels
Display aspect ratio : 16:9
Frame rate mode : Variable
Frame rate : 28.602 fps
Minimum frame rate : 10.667 fps
Maximum frame rate : 32.000 fps
Color space : YUV
Chroma subsampling : 4:2:0
Bit depth : 8 bits
Scan type : Progressive
Bits/(Pixel*Frame) : 0.062
Stream size : 1.34 GiB (92%)
Encoded date : UTC 2018-04-01 00:00:00
Tagged date : UTC 2018-04-01 00:00:00

Audio
ID : 2
Format : AAC
Format/Info : Advanced Audio Codec
Format profile : LC
Codec ID : 40
Duration : 1h 58mn
Bit rate mode : Constant
Bit rate : 132.3 Kbps
Channel(s) : 2 channels
Channel positions : Front: L R
Sampling rate : 44.1 KHz
Compression mode : Lossy
Stream size : 111 MiB (7%)
Encoded date : UTC 2018-04-01 00:00:00
Tagged date : UTC 2018-04-01 00:00:00

 

 

 

 

 

 

 

 

 

 

 

Watch GLORY 52 Los Angeles Main Card 720p TotAnon mp4

 

 

 

 

Watch online

 

 

Waiting finish converting video

 

 

Server 1

 

 

 

 

 

 

 

 

 

 

 

 

 

 

 

 

Server 2

 

 

 

 

 

 


 

 

 

 

 

Uploaded By Site DX-TV.com

 

 

 

open rar file to see this password

 

 

 

 

The password is : DX-TV.com

 

 

 

 

720p

 

 

 

 

 

Uploaded.net + rapidgator.net

 

 

 

 

 

 

http://shrt10.com/UrrJLa

 

 

 

 

 

 

http://shrt10.com/BiRc

 

 

 

 

 

 

 

 

Watch GLORY 52 Los Angeles Main Card 720p TotAnon mp4