Watch GLORY 50 Chicago 720p WEB DL ORG

Watch GLORY 50 Chicago 720p WEB DL ORG

 

 

 

 

 

wwe

 

 

 

 

 

 

 

 
Complete name : GLORY.50.Chicago.720p.WEB.DL.x264-ORG.mp4
Format : MPEG-4
Format profile : Base Media
Codec ID : isom
File size : 1.72 GiB
Duration : 1h 59mn
Overall bit rate : 2 067 Kbps
Writing application : Lavf57.71.100

Video
ID : 1
Format : AVC
Format/Info : Advanced Video Codec
Codec ID : avc1
Codec ID/Info : Advanced Video Coding
Duration : 1h 59mn
Bit rate mode : Variable
Bit rate : 2 000 Kbps
Width : 1 280 pixels
Height : 720 pixels
Display aspect ratio : 16:9
Frame rate mode : Constant
Frame rate : 25.000 fps
Color space : YUV
Chroma subsampling : 4:2:0
Bit depth : 8 bits
Scan type : Progressive
Bits/(Pixel*Frame) : 0.087
Stream size : 1.67 GiB (97%)
Audio
ID : 2
Format : AAC
Format/Info : Advanced Audio Codec
Format profile : LC
Codec ID : 40
Duration : 1h 59mn
Bit rate mode : Variable
Bit rate : 61.4 Kbps
Maximum bit rate : 62.7 Kbps
Channel(s) : 2 channels
Channel positions : Front: L R
Sampling rate : 44.1 KHz
Compression mode : Lossy
Stream size : 52.4 MiB (3%)

 

 

 

 

 

 

 

 

 

 

 

 

 

 

 

 

 

Watch GLORY 50 Chicago 720p WEB DL ORG

 

 

 

 

Watch online

 

 

Waiting finish converting video

 

 

Server 1

 

 

 

 

 

 

 

 

 

 

 

 

 

 

 

 

 

 

Server 2

 

 

 

 

 

 


 

 

 

 

Uploaded By Site DX-TV.com

 

 

 

open rar file to see this password

 

 

 

 

The password is : DX-TV.com

 

 

 

 

 

 

 

 

Uploaded.net + rapidgator.net

 

 

 

 

 

 

 

http://shrt10.com/GAH28vp

 

 

 

 

http://shrt10.com/KfHcZ

 

 

 

 

 

 

 

 

 

Watch GLORY 50 Chicago 720p WEB DL ORG

Author: snaw90

Leave a Reply

Your email address will not be published. Required fields are marked *