Watch GCW The Aftermath 2021 10 09 Full Replay

Watch GCW The Aftermath 2021 10 09 Full Show Replay DX-TV

Watch GCW The Aftermath

 Watch GCW The Aftermath


 

Dopapk

 

 

Show Links

 

 

down

 

 

 

Nitroflare

 

 

Show Links

 

 

http://shrt10.com/XK56ll
http://shrt10.com/eCSpd

 

 

 

 

Rapidgator

 

 

Show Links

 

 

http://shrt10.com/VaBF89i
http://shrt10.com/Qp55vhnaj

 

 

 

 

Uploaded
 

 

Show Links

 

 

http://shrt10.com/uPJB9OED
http://shrt10.com/cFZllzb

 

 

 

 

 

Watch online

 

Server 1

 

 

 

 

watch now

 

 

 

 

Server-2

 

 

 

 

watch now

 

 

 

|Server-3

 

 

 

 

Watch GCW The Aftermath

 

 

Uploaded By Site DX-TV.com

 

 

Open Info Show

Watch GCW The Aftermath

On October 10th GCW presents The Aftermath live on FITE straight from Showboat Hotel in Atlantic city, NJ! The event features the first time ever match between Minoru Suzuki and Joey Janela.

Check the already announced lineup below:

Minoru Suzuki vs Joey Janela
Mercedes Martinez vs Allie Kat
Alex Colon vs Jimmy Lloyd

Alex Zayne vs Starboy Charlie
Tony Deppen vs Dante

Calvin Tankman vs ASF
Atticus Cogar vs Nick Wayne
….. and more!

*lineup subject to change
**removed intermission

 

Watch GCW The Aftermath

Complete name : GCW The Aftermath 2021 10 09 480p WEB By DX-TV.com.mp4
Format : MPEG-4
Format profile : Base Media
Codec ID : isom
File size : 1.67 GiB
Duration : 2 h 55 min
Overall bit rate mode : Variable
Overall bit rate : 1 362 kb/s

Video
ID : 1
Format : AVC
Duration : 2 h 55 min
Bit rate : 1 230 kb/s
Width : 864 pixels
Height : 488 pixels
Display aspect ratio : 16:9
Frame rate mode : Variable
Frame rate : 29.970 (29970/1000) FPS
Minimum frame rate : 10.000 FPS
Maximum frame rate : 90 000.000 FPS
Color space : YUV
Chroma subsampling : 4:2:0
Bit depth : 8 bits
Scan type : Progressive
Bits/(Pixel*Frame) : 0.097
Stream size : 1.50 GiB (90%)
Codec configuration box : avcC

Watch GCW The Aftermath

Audio
ID : 2
Format : AAC LC
Format/Info : Advanced Audio
Codec ID : mp4a-40-2
Duration : 2 h 55 min
Bit rate mode : Variable
Bit rate : 123 kb/s
Maximum bit rate : 128 kb/s
Channel(s) : 2 channels
Channel layout : L R
Sampling rate : 48.0 kHz
Frame rate : 46.875 FPS (1024 SPF)
Compression mode : Lossy
Stream size : 154 MiB (9%)
Default : Yes
Alternate group : 1

 

Watch GCW The Aftermath

Complete name : GCW The Aftermath 2021 10 09 720p WEB H264 By DX-TV.com.mp4
Format : MPEG-4
Format profile : Base Media
File size : 3.72 GiB
Duration : 2 h 55 min
Overall bit rate mode : Variable
Overall bit rate : 3 041 kb/s

Video
ID : 1
Format : AVC
Codec ID : avc1
Codec ID/Info : Advanced Video
Duration : 2 h 55 min
Bit rate : 2 769 kb/s
Width : 1 280 pixels
Height : 720 pixels
Display aspect ratio : 16:9
Frame rate mode : Variable
Frame rate : 29.970 (29970/1000) FPS
Minimum frame rate : 10.000 FPS
Maximum frame rate : 31.250 FPS
Color space : YUV
Chroma subsampling : 4:2:0
Bit depth : 8 bits
Scan type : Progressive
Bits/(Pixel*Frame) : 0.100
Stream size : 3.39 GiB (91%)
Codec configuration box : avcC

Watch GCW The Aftermath

Audio
ID : 2
Format : AAC LC
Codec ID : mp4a-40-2
Duration : 2 h 55 min
Bit rate mode : Variable
Bit rate : 265 kb/s
Channel(s) : 2 channels
Channel layout : L R
Sampling rate : 48.0 kHz
Frame rate : 46.875 FPS (1024 SPF)
Compression mode : Lossy
Stream size : 328 MiB (9%)
Default : Yes
Alternate group : 1

https://dx-tv.com/

 

 

 

 

 

You May Also Like

Leave a Reply

Your email address will not be published. Required fields are marked *

This site uses Akismet to reduce spam. Learn how your comment data is processed.