Watch GCW Nick Gage Invitational 3 mp4

Watch GCW Nick Gage Invitational 3 mp4

 

 

 

 


 

 

 

dx-tv.com

 

 

 

 

 
Complete name : GCW Nick Gage Invitational 3.mp4
Format : MPEG-4
Format profile : Base Media
Codec ID : mp42 (mp42/mp41)
File size : 2.07 GiB
Duration : 2 h 26 min
Overall bit rate mode : Variable
Overall bit rate : 2 025 kb/s
Encoded date : UTC 2018-09-09 05:08:42
Tagged date : UTC 2018-09-09 05:09:10
TIM : 00:00:00:00
TSC : 24000
TSZ : 1001

Video
ID : 1
Format : AVC
Format/Info : Advanced Video Codec
Codec ID/Info : Advanced Video Coding
Duration : 2 h 26 min
Source duration : 2 h 26 min
Bit rate : 1 895 kb/s
Width : 720 pixels
Height : 480 pixels
Display aspect ratio : 16:9
Frame rate mode : Variable
Frame rate : 23.976
Minimum frame rate : 23.976 FPS
Maximum frame rate : 24.000 FPS
Standard : NTSC
Color space : YUV
Chroma subsampling : 4:2:0
Bit depth : 8 bits
Scan type : Progressive
Bits/(Pixel*Frame) : 0.229
Stream size : 1.94 GiB (94%)
Source stream size : 1.94 GiB (94%)
Language : English
Encoded date : UTC 2018-09-09 05:08:42
Tagged date : UTC 2018-09-09 05:08:42
Color range : Limited
mdhd_Duration : 8771888

Audio
ID : 2
Format : AAC
Format/Info : Advanced Audio Codec
Format profile : LC
Codec ID : mp4a-40-2
Duration : 2 h 26 min
Source duration : 2 h 26 min
Bit rate mode : Variable
Bit rate : 125 kb/s
Maximum bit rate : 211 kb/s
Channel(s) : 2 channels
Channel positions : Front: L R
Sampling rate : 48.0 kHz
Frame rate : 46.875 FPS
Compression mode : Lossy
Stream size : 131 MiB (6%)
Source stream size : 131 MiB (6%)
Language : English
Encoded date : UTC 2018-09-09 05:08:42
Tagged date : UTC 2018-09-09 05:08:42
mdhd_Duration : 8771946

 

 

 

 

 

 

 

Watch GCW Nick Gage Invitational 3 mp4

 

 

 

 

Watch online

 

 

Waiting finish converting video

 

 

Server 1

 

 

 

 

 

 

 

 

 

 

 

 

 

 

 

Server 2

 

 

 

 

 

 

 


 

 

 

 

 

 

Uploaded By Site DX-TV.com

 

 

 

open rar file to see this password

 

 

 

 

The password : DX-TV.com

 

 

 

 

 

 

Uploaded.net + rapidgator.net

 

 

 

 

 

http://shrt10.com/6XsJKd

 

 

 

 

 

http://shrt10.com/GtVrF4

 

 

 

 

 

Watch GCW Nick Gage Invitational 3 mp4

Leave a Reply

This site uses Akismet to reduce spam. Learn how your comment data is processed.

Support HVIPS

Please Disable Ad-Block To View This site. just help us to continue this work