Watch GCW Joey Janella’s Spring Break 4 2020

GCW Joey Janella’s Spring Break 4 2020 10 10 480p DX-TV

 

GCW Joey Janella’s Spring Break 4

 

 GCW Joey Janella's Spring Break 4
 


 

 

Watch GCW Joey Janella’s Spring Break 4 2020

 

 

Complete name : GCW Joey Janella’s Spring Break 4 10 Oct 2020 WEB H264 DX-TV.mp4
Format : MPEG-4
Format profile : Base Media
Codec ID : mp42
File size : 2.47 GiB
Duration : 4 h 40 min
Overall bit rate : 1 263 kb/s

GCW Joey Janella’s Spring Break 4

Video
ID : 1
Format : AVC
Duration : 4 h 40 min
Bit rate : 1 093 kb/s
Width : 720 pixels
Height : 480 pixels
Display aspect ratio : 16:9
display aspect rat : 16:9
Frame rate mode : Variable
Frame rate : 29.970 FPS 
Standard : NTSC
Color space : YUV
Chroma : 4:2:0
Bit depth : 8 bits
Scan type : Progressive
Bits/(Pixel*Frame) : 0.106
Stream size : 2.14 GiB (87%)
Color range : Limited
Color primaries : BT.709
Transfer characteristics : BT.709
Matrix coefficients : BT.709
Codec configuration box : avcC

GCW Joey Janella’s Spring Break 4

Audio
ID : 2
Format : AAC LC
Format/Info : Advanced Audio
Codec ID : mp4a-40-2
Duration : 4 h 40 min
Bit rate mode : Constant
Bit rate : 160 kb/s
Channel(s) : 2 channels
Channel layout : L R
Sampling rate : 48.0 kHz
Frame rate : 46.875 FPS (1024 SPF)
Compression mode : Lossy
Stream size : 322 MiB (13%)
Title : Stereo
Default : Yes

GCW Joey Janella’s Spring Break 4

GCW PRESENTS: JOEY JANELA SPRING BREAK 4 (THE COLLECTIVE 2020)

* Joey Janela vs. Ricky Morton
* Alex Shelley vs. Tony Deppen
* Jonathan Gresham vs. Lee Moriarty
* Matt Tremont vs. Alex Colon (Tremont’s Final GCW Match)
* The Rascalz (Zachary Wentz & Dezmond Xavier) vs. IronBeast (KTB and Shane Mercer)
* Ethan Page agents The Clusterf*ck Battle Royal

GCW Joey Janella’s Spring Break 4

As part of “The Collective 2020” lineup of events, “Joey Janela Spring Break 4: Spring Break Forever” featuring the advertised Janela vs

Morton main event is scheduled to emanate from Marion County Fairgrounds in Indianapolis, Indiana on Saturday, October 10, 2020.

The event will be available via live stream at FITE.tv on 10/10/2020.

The full schedule of events advertised to be included in The Collective 2020

 

Watch GCW Joey Janella’s Spring Break 4 2020

 

 

 

 

Watch online

 

 

 

 

 

Server 1

 

 

 

 

watch now

 

 

 

 

Server-2

 

 

 

watch now

 

 

 

 

Server-3

 

 

 

GCW Joey Janella's Spring Break 4

 

 

 

 

Uploaded By Site DX-TV.com

 

 

 

 

Download Free Links with normal and high Speed [ more 14 hosts ]  

 

 

 

http://shrt10.com/5DWNkCE
http://shrt10.com/9APhKU
http://shrt10.com/MfXAC26
http://shrt10.com/DXwF0f
http://shrt10.com/Ma4ih82
http://shrt10.com/FW8WzRoD
http://shrt10.com/UerBCm8
http://shrt10.com/ge0gWdA3d
http://shrt10.com/hsOiadKce

 

 

 

 

Download Links with premium High Speed   

 

 

 

 

dropapk.to

 

 

 

nitroflare.com

 

 

 

rapidgator.net

 

 

 

uploaded.net

 

 

 

uploadgig.com

 

 

 

 

 

dx-tv.com

 

urlfree.net

Leave a Reply

Your email address will not be published. Required fields are marked *

This site uses Akismet to reduce spam. Learn how your comment data is processed.