Watch GCW Joey Janella’s Spring Break 4 2020 10 10 720p

Wrestling GCW Joey Janella’s Spring Break 4 2020 10 10 720p DX-TV

 

GCW Joey Janella’s Spring Break 4

 

 GCW Joey Janella's Spring Break 4
 


 

 

Watch Wrestling GCW Joey Janella’s Spring Break 4 2020 720p

 

Tag Team Match
The Rascalz (Dezmond Xavier & Zachary Wentz) vs. Ironbeast (KTB & Shane Mercer)
Singles Match 
Alex Colon vs. Matt Tremont
Six Man Tag Team Match
Alex Zayne, Blake Christian & Jordan Oliver vs. Team Pazuzu (Chris Dickinson, Ortiz & Santana)
Singles Match
Ricky Morton vs. Joey Janela
Clusterfuck Battle Royal
Shark Boy vs. Flash Flanagan vs. JTG vs. Cassandro vs. Thunderkitty vs. Kung Fu Janela vs.
Willow Nightingale vs. Allie Kat vs. Billie Starkz vs. Elayna Black vs. Levi Everett vs. Barron Trump vs
Dustin Thomas vs. Dyln McKay vs. Kerry Morton vs. Lord Adrean vs. Nasty Leroy vs
Starboy Charlie vs. Steve Sanders vs. Tahir2x vs. Yoshihiko

 

GCW Joey Janella’s Spring Break 4

The official Twitter feed for the Game-Changer Wrestling promotion also joined in on the social media buzz the Joey Janela Spring Break 4 event is already garnering,

as they posted their own comments on the official GCW Twitter page on Tuesday to add to the hype for the Joey Janela vs. Ricky Morton main event.

 

“For Spring Break’s 4th Birthday, we get to welcome one of the greatest wrestling legends of all time Ricky Morton back to GCW,”

the tweet shared via the official GCW Twitter feed read. “See ya in Indy Ricky!”

Also scheduled for the “Joey Janela Spring Break 4: Spring Break Forever” event on 10/10/2020 are the following matches:

GCW Joey Janella’s Spring Break 4

GCW PRESENTS: JOEY JANELA SPRING BREAK 4 (THE COLLECTIVE 2020)

* Joey Janela vs. Ricky Morton
* Alex Shelley vs. Tony Deppen
* Jonathan Gresham vs. Lee Moriarty
* Matt Tremont vs. Alex Colon (Tremont’s Final GCW Match)
* The Rascalz (Zachary Wentz & Dezmond Xavier) vs. IronBeast (KTB and Shane Mercer)
* Ethan Page agents The Clusterf*ck Battle Royal

GCW Joey Janella’s Spring Break 4

 

Complete name : GCW Joey Janella’s Spring Break 4 10 Oct 2020 720p WEB H264 DX-TV.mp4
Format : MPEG-4
Format profile : Base Media
Codec ID : isom
File size : 4.05 GiB
Duration : 4 h 40 min
Overall bit rate : 2 068 kb/s

Watch GCW Joey Janella’s Spring Break 4

Video
ID : 1
Format : AVC
Format/Info : Advanced
Duration : 4 h 40 min
Bit rate : 1 960 kb/s
Width : 1 280 pixels
Height : 720 pixels
Display aspect ratio : 16:9
Frame rate mode : Variable
Frame rate : 29.970 FPS
Color space : YUV
Chroma : 4:2:0
Bit depth : 8 bits
Scan type : Progressive
Bits/(Pixel*Frame) : 0.071
Stream size : 3.84 GiB (95%)
Codec box : avcC

GCW Joey Janella’s Spring Break 4

Audio
ID : 2
Format : AAC LC
Format/Info : Advanced Audio
Codec ID : mp4a-40-2
Duration : 4 h 40 min
Bit rate mode : Constant
Bit rate : 96.0 kb/s
Channel(s) : 2 channels
Channel layout : L R
Sampling rate : 48.0 kHz
Frame rate : 46.875 FPS (1024 SPF)
Compression mode : Lossy
Stream size : 193 MiB (5%)
Default : Yes
Alternate group : 1

 

GCW Joey Janella’s Spring Break 4

 

Watch online

 

Server 1

 

 

 

 

GCW Joey Janella's Spring Break 4

 

 

 

 

Server-2

 

 

 

watch now

 

 

 

 

Server-3

 

 

 

watch now

 

 

 

 

Uploaded By Site DX-TV.com

 

 

 

Download Links with premium High Speed   

 

 

 

nitroflare.com

 

 

 

rapidgator.net

 

 

 

uploaded.net

 

 

 

uploadgig.com

 

 

 

 

 

dx-tv.com

 

urlfree.net

Leave a Reply

Your email address will not be published. Required fields are marked *

This site uses Akismet to reduce spam. Learn how your comment data is processed.