Watch GCW Glory Pro Are Ya Wrestling Son 2020 10 10

GCW Glory Pro Are Ya Wrestling Son 720p DX-TV

 

GCW Glory Pro Are Ya Wrestling Son

 

 GCW Glory Pro Are Ya Wrestling Son
 


 

 

Watch GCW Glory Pro Are Ya Wrestling Son 2020 10 10

 

Glory Pro Wrestling 10/10/2020 “Are Ya Wrestling, Son?” results from The Coliseum at The Marion County Fairgrounds in Indianapolis, Indiana.

  1. Mike Outlaw def. Lee Moriarty
  2. The North def. Alex Zayne and Blake Christian
  3. Midwest Territory Championship Match: Hakim Zane (c) w/ Karam def. Kylie Rae to retain the Midwest Territory Championship
  4. IWTV Independent Wrestling Championship Match: WARHORSE (c) def. Zachary Wentz to retain the IWTV Independent Wrestling Championship
  5. Bullrope Match: Jake Something def. Manders 
  6. Sisters of Destruction (Blair Onyx and Elayna Black) def. Hyan and Laynie Luck
  7. Devon Monroe def. Stephen Wolf, Jody Threat and Kody Lane
  8. Three Way Tag Team Match for the vacant United Glory Tag Team Championships: Top Flight (Air Wolf and Angel Dorado) def. Gaytanic Panic (Danhausen and EFFY) and Dan the Dad and Allie Kat to become the NEW United Glory Tag Team Champions.
  9. Crown of Glory Championship Match: AJ Gray (c) def. ACH to retain the Crown of Glory Championship

You can watch the replay on FiteTV. Order below using our link to help us out.

 

GCW Glory Pro Are Ya Wrestling Son

Complete name : Glory Pro Are Ya Wrestling Son 720p WEB H264 DX-TV.mp4
Format : MPEG-4
Format profile : Base Media
Codec ID : isom
File size : 2.27 GiB
Duration : 2 h 30 min
Overall bit rate : 2 168 kb/s
Writing application : Lavf57.71.100

GCW Glory Pro Are Ya Wrestling Son

Video
ID : 1
Format : AVC
Duration : 2 h 30 min
Bit rate : 2 035 kb/s
Width : 1 280 pixels
Height : 720 pixels
Display aspect ratio : 16:9
Frame rate mode : Variable
Frame rate : 29.970 FPS
Color space : YUV
Chroma : 4:2:0
Bit depth : 8 bits
Scan type : Progressive
Bits/(Pixel*Frame) : 0.074
Stream size : 2.13 GiB (94%)
Codec configuration box : avcC

GCW Glory Pro Are Ya Wrestling Son

Audio
ID : 2
Format : AAC LC
Format/Info : Advanced Audio
Codec ID : mp4a-40-2
Duration : 2 h 30 min
Bit rate mode : Constant
Bit rate : 128 kb/s
Channel(s) : 2 channels
Channel layout : L R
Sampling rate : 44.1 kHz
Frame rate : 43.066 FPS (1024 SPF)
Compression mode : Lossy
Stream size : 137 MiB (6%)
Default : Yes
Alternate group : 1

 

 

 

Watch GCW Glory Pro Are Ya Wrestling Son 2020 10 10

 

Watch online

 

 

 

 

 

Server 1

 

 

 

 

watch now

 

 

 

 

Server-2

 

 

 

watch now

 

 

 

 

Server-3

 

 

 

GCW Glory Pro Are Ya Wrestling Son

 

 

 

 

Uploaded By Site DX-TV.com

 

 

 

 

Download Free Links with normal and high Speed [ more 14 hosts ]  

 

 

 

http://shrt10.com/atqCGX
http://shrt10.com/D5ZKSkr4
http://shrt10.com/453obB47
http://shrt10.com/uzEariK7b
http://shrt10.com/0KfH0D1
http://shrt10.com/7mWQJ1H
http://shrt10.com/Ibc9Eq
http://shrt10.com/sg5pVWU9q

 

 

 

 

Download Links with premium High Speed   

 

 

 

dropapk.to

 

 

 

nitroflare.com

 

 

 

rapidgator.net

 

 

 

uploaded.net

 

 

 

uploadgig.com

 

 

 

 

 

dx-tv.com

 

urlfree.net

Leave a Reply

Your email address will not be published. Required fields are marked *

This site uses Akismet to reduce spam. Learn how your comment data is processed.