Watch GCW 2020 01 18 Take A Picture 720p

Watch GCW 2020 01 18 Take A Picture 720p DX-TV

 

 

GCW

 

 

 

 

dx-tv.com

 

 

 

 

Watch GCW 2020 01 18 Take A Picture 720p

 

 

 

 

 

Complete name : GCW.2020.01.18.Take.A.Picture.720p.WEB.h264-iNDYHEEL.mp4
Format : MPEG-4
Format profile : Base Media
File size : 2.46 GiB
Duration : 2 h 56 min
Overall bit rate mode : Variable
Overall bit rate : 2 002 kb/s
Writing application : Lavf58.32.104

Video
ID : 1
Format : AVC
Duration : 2 h 56 min
Bit rate : 1 897 kb/s
Width : 1 280 pixels
Height : 720 pixels
Display aspect ratio : 16:9
Frame rate mode : Variable
Frame rate : 29.970 (29970/1000) FPS
Minimum frame rate : 7.519 FPS
Maximum frame rate : 30.303 FPS
Color space : YUV
Chroma subsampling : 4:2:0
Bit depth : 8 bits
Scan type : Progressive
Bits/(Pixel*Frame) : 0.069
Stream size : 2.33 GiB (95%)
Codec configuration box : avcC

Audio
ID : 2
Format : AAC LC
Codec ID : mp4a-40-2
Duration : 2 h 56 min
Bit rate mode : Variable
Bit rate : 96.0 kb/s
Maximum bit rate : 99.4 kb/s
Channel(s) : 2 channels
Channel layout : L R
Sampling rate : 48.0 kHz
Frame rate : 46.875 FPS (1024 SPF)
Compression mode : Lossy
Stream size : 119 MiB (5%)
Default : Yes
Alternate group : 1

 

 

 

Watch online

 

 

Waiting finish converting video

 

 

Server 1

 

 

 

watch now

 

 

 

Watch GCW 2020 01 18 Take A Picture 720p

 

 

 

Uploaded By Site DX-TV.com

 

 

 

 

 

Download VIP Members FTP server Download 1 Link and Free Links 

 

 

 

Limited Time will be removed after 90 days if you need available again pm email admin

 

[member]  

 

FTP Link Download high speed

[/member]  

1fichier.com 

 

 

dailyuploads.net

 

 

earn4files.com

 

 

 

filerio.in

 

 

 

Download with premium account Links 

 

 

nitroflare.com

 

 

rapidgator.net

 

 

uploaded.net