Watch GCW 2019 09 14 Josh Barnetts Bloodsport II

Watch GCW 2019 09 14 Josh Barnetts Bloodsport II 720p DX-TV

 

 

GCW
GCW

 

 

 

 

 

dx-tv.com

 

 

 

 

Watch GCW 2019 09 14 Josh Barnetts Bloodsport II

 

 

 

 

 

Complete name : GCW.2019.09.14.Josh.Barnetts.Bloodsport.II.720p.WEB.h264-iNDYHEEL.mp4
Format : MPEG-4
Format profile : Base Media
Codec ID : isom (isom/iso2/avc1/mp41)
File size : 2.35 GiB
Duration : 2 h 48 min
Overall bit rate : 2 004 kb/s
Writing application : Lavf58.30.100

Video
ID : 1
Format : AVC
Format/Info : Advanced Video Codec
Codec ID : avc1
Codec ID/Info : Advanced Video Coding
Duration : 2 h 48 min
Bit rate : 1 897 kb/s
Width : 1 280 pixels
Height : 720 pixels
Display aspect ratio : 16:9
Frame rate mode : Variable
Frame rate : 29.970 FPS
Minimum frame rate : 14.925 FPS
Maximum frame rate : 30.303 FPS
Color space : YUV
Chroma subsampling : 4:2:0
Bit depth : 8 bits
Scan type : Progressive
Bits/(Pixel*Frame) : 0.069
Stream size : 2.23 GiB (95%)
Codec configuration box : avcC

Audio
ID : 2
Format : AAC LC
Format/Info : Advanced Audio Codec Low Complexity
Codec ID : mp4a-40-2
Duration : 2 h 48 min
Bit rate mode : Constant
Bit rate : 96.0 kb/s
Channel(s) : 2 channels
Channel layout : L R
Sampling rate : 48.0 kHz
Frame rate : 46.875 FPS (1024 SPF)
Compression mode : Lossy
Stream size : 117 MiB (5%)
Default : Yes
Alternate group : 1

 

 

 

 

 

 

Watch online

 

 

Waiting finish converting video

 

 

Server 1

 

 

 

 

 

 

 

watch now

 

 

 

 

 

 

 

Server 2

 

 

 

 

 

 

 

watch now

 

 

 

 

 

 

 

 

Uploaded By Site DX-TV.com

 

 

 

https://shrt10.com
https://shrt10.com

 

 

 


 

 

 

 


 

 

 

Watch GCW 2019 09 14 Josh Barnetts Bloodsport II

 

 

 

 

bitster.cz

 

 

 

multiup.org

 

 

 

nitroflare.com

 

 

 

rapidgator.net

 

 

 

uploaded.net

 

 

 

uploadgig.com

 

 

 

 

 

 

You May Also Like