GCW 2018 04 06 Joey Janelas Spring Break 2 720p WEB iNDYHEEL

GCW 2018 04 06 Joey Janelas Spring Break 2 720p WEB iNDYHEEL

 

 

 

 

 

 

wwe

 

 

 

 

 

 

 
Complete name : GCW.2018.04.06.Joey.Janelas.Spring.Break.2.720p.WEB.h264-iNDYHEEL.mp4
Format : MPEG-4
Format profile : Base Media
Codec ID : isom
File size : 3.61 GiB
Duration : 3h 38mn
Overall bit rate : 2 366 Kbps
Encoded date : UTC 2018-04-07 12:43:42
Tagged date : UTC 2018-04-07 12:43:42

Video
ID : 1
Format : AVC
Format/Info : Advanced Video Codec
Format profile : [email protected]
Codec ID : avc1
Codec ID/Info : Advanced Video Coding
Duration : 3h 38mn
Bit rate mode : Variable
Bit rate : 2 231 Kbps
Maximum bit rate : 4 164 Kbps
Width : 1 280 pixels
Height : 720 pixels
Display aspect ratio : 16:9
Frame rate mode : Variable
Frame rate : 29.757 fps
Minimum frame rate : 0.109 fps
Maximum frame rate : 90 000.000 fps
Color space : YUV
Chroma subsampling : 4:2:0
Bit depth : 8 bits
Scan type : Progressive
Bits/(Pixel*Frame) : 0.081
Stream size : 3.40 GiB (94%)
Tagged date : UTC 2018-04-07 12:50:44

Audio
ID : 2
Format : AAC
Format/Info : Advanced Audio Codec
Format profile : LC
Codec ID : 40
Duration : 3h 38mn
Bit rate mode : Variable
Bit rate : 128 Kbps
Maximum bit rate : 147 Kbps
Channel(s) : 2 channels
Channel positions : Front: L R
Sampling rate : 48.0 KHz
Compression mode : Lossy
Stream size : 200 MiB (5%)
Tagged date : UTC 2018-04-07 12:50:44

 

 

 

 

 

 
Joey Janela vs The Great Sasuke

James Ellsworth vs Matt Riddle

Clusterfuck Match

Nick Gage vs Penta El Zero M

David Starr vs Mike Quackenbush

WALTER vs Pierre Carl Ouellet

DJ Z vs. Eli Everfly vs. Gringo Loco vs. Kyle The Beast vs. Teddy Hart vs. Tony Deppen
 

 

 

 

 

GCW 2018 04 06 Joey Janelas Spring Break 2 720p WEB iNDYHEEL

 

 

 

 

Watch online

 

 

Waiting finish converting video

 

 

Server 1

 

 

 

 

 

 

 

 

 

 

 

 

 

 

Server 2

 

 

 

 

 

 


 

 

 

 

 

Uploaded By Site DX-TV.com

 

 

 

open rar file to see this password

 

 

 

 

The password is : DX-TV.com

 

 

 

 

720p

 

 

 

 

 

Uploaded.net + rapidgator.net

 

 

 

 

 

 

http://shrt10.com/Y49yt

 

 

 

 

 

http://shrt10.com/feRiW

 

 

 

 

 

 

 

 

 

GCW 2018 04 06 Joey Janelas Spring Break 2 720p WEB iNDYHEEL