Watch FSW No Escape 2020-01-25 720p

Watch FSW No Escape 2020-01-25 720p DX-TV

 

 

FSW

 

 

 

 

dx-tv.com

 

 

 

 

Watch FSW No Escape 2020-01-25 720p

 

 

 

 

 

Complete name : FSW.No.Escape.25th.January.2020.720p.mp4
Format : MPEG-4
Format profile : Base Media
Codec ID : isom (isom/iso2/avc1/mp41)
File size : 4.33 GiB
Duration : 3 h 15 min
Overall bit rate : 3 170 kb/s
Writing application : Lavf58.25.100
Copyright : copyright
Comment : description

Video
ID : 1
Format : AVC
Format/Info : Advanced Video Codec
Codec ID : avc1
Codec ID/Info : Advanced Video Coding
Duration : 3 h 15 min
Bit rate : 3 000 kb/s
Width : 1 280 pixels
Height : 720 pixels
Display aspect ratio : 16:9
Frame rate mode : Variable
Frame rate : 29.970 (30000/1001) FPS
Minimum frame rate : 29.412 FPS
Maximum frame rate : 30.303 FPS
Color space : YUV
Chroma subsampling : 4:2:0
Bit depth : 8 bits
Scan type : Progressive
Bits/(Pixel*Frame) : 0.109
Stream size : 4.10 GiB (95%)
Codec configuration box : avcC

Audio
ID : 2
Format : AAC LC
Format/Info : Advanced Audio Codec Low Complexity
Codec ID : mp4a-40-2
Duration : 3 h 15 min
Bit rate mode : Constant
Bit rate : 160 kb/s
Channel(s) : 2 channels
Channel layout : L R
Sampling rate : 44.1 kHz
Frame rate : 43.066 FPS (1024 SPF)
Compression mode : Lossy
Stream size : 224 MiB (5%)
Title : Track1
Default : Yes
Alternate group : 1

 

 

 

 

 

 

Watch online

 

 

Waiting finish converting video

 

 

Server 1

 

 

 

 

 

 

 

 

 

 

 

Server 2

 

 

 

 

 

 

 

 

 

 

Server–3

 

 

 

 

 

 

 

 

Server–4

 

 

 

 

 

 

 

 

 

 

Watch FSW No Escape 2020-01-25 720p

 

 

 

Uploaded By Site DX-TV.com

 

 

 

[member]

FTP Link Download high speed

[/member]

1fichier.com 

 

https://shrt10.com/Q7wJ8HL
https://shrt10.com/Gia5RXOL
https://shrt10.com/4EBd83ey7

dailyuploads.net

 

https://shrt10.com/nRADxg
https://shrt10.com/gcaNwa7E
https://shrt10.com/z9aBh

 

DDL.to

 

https://shrt10.com/IBK0p9RMR
https://shrt10.com/TzOnjmNE4
https://shrt10.com/xms1fWymT

 

earn4files.com

 

https://shrt10.com/7FxdgKg8
https://shrt10.com/UlRR9
https://shrt10.com/nesPE7ItG

 

filerio.in

https://shrt10.com/FOr3LswK
https://shrt10.com/z35XW
https://shrt10.com/Ogw3YU

 

 

 

 

Download with premium account Links 

 

 

nitroflare.com

 

 

rapidgator.net

 

 

uploaded.net