Watch Friday Night SmackDown 2020 11 06 WWE Free Online

WWE Friday Night SmackDown 2020 11 06 HDTV Star DX-TV

WWE SmackDown 2020 11 06

 

WWE SmackDown 2020 11 06
 


 

 

Watch Friday Night SmackDown 2020 11 06 WWE Free Online

 

Complete name : WWE.Friday.Night.SmackDown.2020.11.06.HDTV.x264-Star.mp4
Format : MPEG-4
Format profile : Base Media
Codec ID : mp42
File size : 920 MiB
Duration : 1 h 27 min
Overall bit rate : 1 475 kb/s

WWE SmackDown 2020 11 06

Video
ID : 1
Format : AVC
Duration : 1 h 27 min
Bit rate : 1 300 kb/s
Width : 720 pixels
Height : 480 pixels
Display aspect ratio : 16:9
Original display aspect rat : 16:9
Frame rate mode : Constant
Frame rate : 29.970 FPS
Standard : NTSC
Color space : YUV
Chroma subsampling : 4:2:0
Bit depth : 8 bits
Scan type : Progressive
Bits/(Pixel*Frame) : 0.126
Stream size : 815 MiB (89%)
Color range : Limited
Color primaries : BT.601 NTSC
Transfer characteristics : BT.709
Matrix coefficients : BT.601
Codec configuration box : avcC

WWE SmackDown 2020 11 06

Audio
ID : 2
Format : AAC LC
Format/Info : Advanced Audio
Codec ID : mp4a-40-2
Duration : 1 h 27 min
Bit rate mode : Constant
Bit rate : 159 kb/s
Channel(s) : 2 channels
Channel layout : L R
Sampling rate : 48.0 kHz
Frame rate : 46.875 FPS (1024 SPF)
Compression mode : Lossy
Stream size : 99.4 MiB (11%)
Title : Stereo
Default : Yes
Alternate group : 1

WWE SmackDown 2020 11 06

Sasha Banks to battle Bayley in a SmackDown Women’s Championship Rematch

In the wake of her epic Hell in a Cell Match against Bayley, The Boss must defend the SmackDown Women’s Title .

In a rematch against her former best friend turned bitter rival.

Bayley claimed Sasha doesn’t know how to retain championships after winning them.

Will Banks prove her wrong and go on to face Raw Women’s Champion Asuka in a Champion vs. Champion Match at Survivor Series?

Or will next week simply be the start of a historic new reign for The Role Model?

The storied rivalry between Sasha Banks and Bayley will come to an end, this Friday at 8/7 C on FOX.

 

Watch Friday Night SmackDown 2020 11 06 WWE Free Online

 

 

 

Watch online

 

 

 

Server 1

 

 

 

 

WWE SmackDown 2020 11 06

 

 

 

 

Server-2

 

 

 

watch now

 

 

 

 

 

 

Uploaded By Site DX-TV.com

 

 

 

 

Download Free Links with normal and high Speed [ more 14 hosts ]  

 

[su_expand more_text=”Show Hosts Info” less_text=”Close all Info” height=”30″ text_color=”#000000″ link_color=”#e25f8b” link_style=”button” more_icon=”icon: arrow-down” less_icon=”icon: arrow-up”]

 

WWE SmackDown 2020 11 06

hexupload.net – clicknupload.co – www.multiup.org – uptobox.com – anonfiles.com – userscloud.com –

dropapk.to alfafile.net – ddownload.com – rockfile.co – 1fichier.com – filedown.org – katfile.com – filerio.in

 

 

[/su_expand]

 

 

http://shrt10.com/4TmmQW35y
http://shrt10.com/OUicT0H
http://shrt10.com/x40yG
http://shrt10.com/NXRGvbKaa
http://shrt10.com/qP2wv
http://shrt10.com/srQX3r
http://shrt10.com/cMvX9y0
http://shrt10.com/H8LvWQ

 

 

 

 

Download Links with premium High Speed   

 

 

 

 

dropapk.to

 

 

 

nitroflare.com

 

 

 

rapidgator.net

 

 

 

uploaded.net

 

 

 

uploadgig.com

 

 

 

 

 

dx-tv.com

 

urlfree.net

You May Also Like

Leave a Reply

Your email address will not be published. Required fields are marked *

This site uses Akismet to reduce spam. Learn how your comment data is processed.