Watch Free WWE SmackDown 720p 2020 09 18 59 FPS

Free WWE SmackDown 720p 2020 09 18 59 FPS DX-TV

 

Free WWE SmackDown 720p

 

 Watch Free WWE SmackDown 720p
 


 

 

Watch Free WWE SmackDown 720p 2020 09 18 59 FPS

 

Cesaro def. Gran Metalik

Shinsuke Nakamura & Cesaro continued to frustrate Lucha House Party and ignited friction among the team. After both Kalisto & Lince Durado argued over the right advice to give Gran Metalik going into the match, the duo was eventually ejected from ringside. The King of the Ropes almost pulled off the win with an aerial assault, but Cesaro got his knees up on the final splash. The Swiss Cyborg then hit a Neutralizer and pinned Gran Metalik for the statement win. Can Lucha House Party get back on the same page before their WWE Clash of Champions showdown with the SmackDown Tag Team Champions?

Free WWE SmackDown 720p

Complete name : WWE.SmackDown.2020.09.18.720p.WEB.h264-HEEL.mp4
Format : MPEG-4
Format profile : Base Media
Codec ID : isom
File size : 6.70 GiB
Duration : 1 h 26 min
Overall bit rate mode : Variable
Overall bit rate : 11.0 Mb/s
Movie name : WWE SMACKDOWN
Law rating : TV-PG (DLSV)
application : Lavf58.32.104

Free WWE SmackDown 720p

Video
ID : 1
Format : AVC
Duration : 1 h 26 min
Bit rate mode : Variable
Bit rate : 11.0 Mb/s
Maximum bit rate : 12.0 Mb/s
Width : 1 280 pixels
Height : 720 pixels
Display aspect ratio : 16:9
Frame rate mode : Variable
Frame rate : 59.940 FPS
Minimum frame rate : 29.990 FPS
Color space : YUV
Chroma subsampling : 4:2:0
Bit depth : 8 bits
Scan type : Progressive
Bits/(Pixel*Frame) : 0.198
Stream size : 6.66 GiB (99%)
Color range : Limited
Color primaries : BT.709
Transfer characteristics : BT.709
Matrix coefficients : BT.709
Codec configuration box : avcC

Free WWE SmackDown 720p

Audio
ID : 2
Format : AAC LC SBR
Format/Info : Advanced Audio
Commercial name : HE-AAC
Format settings : Implicit
Codec ID : mp4a-40-2
Duration : 1 h 26 min
Source duration : 1 h 27 min
Bit rate mode : Constant
Bit rate : 62.7 kb/s
Channel(s) : 2 channels
Channel layout : L R
Sampling rate : 48.0 kHz
Frame rate : 23.438 FPS (2048 SPF)
Compression mode : Lossy
Stream size : 39.0 MiB (1%)
Source stream size : 39.0 MiB (1%)
Default : Yes
Alternate group : 1
mdhd_Duration : 5219970

 

 

 

Watch Free WWE SmackDown 720p 2020 09 18

 

 

 

 

Watch online

 

 

 

 

 

Server 1

 

 

 

 

watch now

 

 

 

 

Server-2

 

 

 

Free WWE SmackDown 720p

 

 

 

 

Server-3

 

 

 

Free WWE SmackDown 720p

 

 

 

 

Uploaded By Site DX-TV.com

 

 

 

 

Download Free Links with normal and high Speed [ more 15 hosts ]  

 

 

http://shrt10.com/PthIdVj
http://shrt10.com/6ysJP
http://shrt10.com/dwuKL
http://shrt10.com/MRnsv
http://shrt10.com/bBUPCvl
http://shrt10.com/AX3qgzs
http://shrt10.com/XZWOPOqg

 

 

 

 

 

Download Links with premium High Speed   

 

 

 

 

nitroflare.com

 

 

 

rapidgator.net

 

 

 

uploadgig.com

 

 

 

 

 

dx-tv.com

 

urlfree.net

Leave a Reply

Your email address will not be published. Required fields are marked *

This site uses Akismet to reduce spam. Learn how your comment data is processed.