Watch Free WWE Raw 07 12 2020 Full Show 720p DX-TV

Watch WWE Raw 07 12 2020 HDTV NWCHD /720p DX-TV

Watch Free WWE Raw 07 12 2020

 

 Watch Free WWE Raw 07 12 2020

 

[su_expand more_text=”Show More Info” less_text=”Close all Info” height=”50″ text_color=”#000000″ link_color=”#e25f8b” link_style=”button” more_icon=”icon: arrow-down” less_icon=”icon: arrow-up”]
Complete name : WWE.Monday.Night.Raw.2020.12.07.HDTV.x264-NWCHD.mp4
Format : MPEG-4
Format profile : Base Media
Codec ID : isom
File size : 1.43 GiB
Duration : 2 h 7 min
Overall bit rate : 1 607 kb/s
Writing application : Lavf58.27.103

Watch Free WWE Raw 07 12 2020

Video
ID : 1
Format : AVC
Duration : 2 h 7 min
Source duration : 2 h 7 min
Bit rate : 1 400 kb/s
Width : 704 pixels
Height : 400 pixels
Display aspect ratio : 16:9
Frame rate mode : Variable
Frame rate : 29.970 FPS
Color space : YUV
Chroma subsampling : 4:2:0
Bit depth : 8 bits
Scan type : Progressive
Bits/(Pixel*Frame) : 0.166
Color primaries : BT.709
Transfer characteristics : BT.709
Matrix coefficients : BT.709
Codec configuration box : avc

Watch Free WWE Raw 07 12 2020

Audio
ID : 2
Format : AAC LC
Format/Info : Advanced Audio
Codec ID : mp4a-40-2
Duration : 2 h 7 min
Bit rate mode : Constant
Bit rate : 192 kb/s
Channel(s) : 2 channels
Channel layout : L R
Sampling rate : 48.0 kHz
Frame rate : 46.875 FPS (1024 SPF)
Compression mode : Lossy
Stream size : 174 MiB (12%)
Title : Stereo
Language : English
Default : Yes
Alternate group : 1

 Free WWE Raw 07 12 2020

Complete name : WWE.Monday.Night.Raw.2020.12.07.720p.HDTV.x264-NWCHD.mp4
Format : MPEG-4
Format profile : Base Media
Codec ID : isom
File size : 4.19 GiB
Duration : 2 h 7 min
Overall bit rate : 4 721 kb/s
Writing application : Lavf58.51.101

Video
ID : 1
Format : AVC
Duration : 2 h 7 min
Source duration : 2 h 7 min
Bit rate : 4 500 kb/s
Width : 1 280 pixels
Height : 720 pixels
Display aspect ratio : 16:9
Frame rate mode : Variable
Frame rate : 29.970 FPS
Color space : YUV
Chroma subsampling : 4:2:0
Bit depth : 8 bits
Scan type : Progressive
Bits/(Pixel*Frame) : 0.163
Color primaries : BT.709
Transfer characteristics : BT.709
Matrix coefficients : BT.709
Codec configuration box : avc

  WWE Raw 07 12 2020

Audio
ID : 2
Format : AAC LC
Format/Info : Advanced Audio
Codec ID : mp4a-40-2
Duration : 2 h 7 min
Bit rate mode : Constant
Bit rate : 192 kb/s
Channel(s) : 2 channels
Channel layout : L R
Sampling rate : 48.0 kHz
Frame rate : 46.875 FPS (1024 SPF)
Compression mode : Lossy
Stream size : 174 MiB (4%)
Title : Stereo
Language : English
Default : Yes
Alternate group : 1

 

[/su_expand]

 

 

Watch online

 

Server 1

 

 

 

 

Watch Free WWE Raw 07 12 2020

 

 

 

 

Server-2

 

 

 

 

watch now

 

 

 

 

Uploaded By Site DX-TV.com

 Free WWE Raw 07 12 2020

Download Links with premium High Speed   

 

 

 

 

dropapk.to

http://shrt10.com/OyKlyn
http://shrt10.com/hW4zc7tF

 

 

nitroflare.com

http://shrt10.com/5Sb0tT
http://shrt10.com/eaCmM

 

 

rapidgator.net

http://shrt10.com/2sp6mCQ
http://shrt10.com/QsuKFYxN

 

uploaded.net

http://shrt10.com/sJTf8Z2
http://shrt10.com/uL57j

 

uploadgig.com

http://shrt10.com/9gYBxISF
http://shrt10.com/rBg5W

 

https://dx-tv.com/watch-njpw-world-tag-league-2020-12-04-free-dx-tv/

Leave a Reply

Your email address will not be published. Required fields are marked *

This site uses Akismet to reduce spam. Learn how your comment data is processed.