Watch Free WWE NXT UK 2020 12 31 720p /1080p DX-TV

Watch Free WWE NXT UK 2020 12 31 720p /1080p DX-TV

Watch Free WWE NXT UK

 Watch Free WWE NXT UK

 

Download Links with premium High Speed   

 

 

dropapk.to

http://shrt10.com/ujwv5SD
http://shrt10.com/Xu9DcB

 

 

nitroflare.com

http://shrt10.com/iQxP4JSZk
http://shrt10.com/0Y4uQW

 

 

rapidgator.net

http://shrt10.com/ISrn4RAW
http://shrt10.com/2s9R6mVv0

 

 

uploaded.net

http://shrt10.com/Qse4X
http://shrt10.com/ZK3jlP6

 

 

uploadgig.com

http://shrt10.com/e6F9bpG
http://shrt10.com/mZf9SL

 

Watch Free WWE NXT

 

Server 1

 

 

 

 

Watch Free WWE NXT UK

 

 

 

 

Server-2

 

 

 

 

watch now

 

 

Uploaded By Site DX-TV.com

 

 

Complete name : WWE.NXT.UK.2020.12.31.720p.Hi.WEB.h264-HEEL.mp4
Format : MPEG-4
Format profile : Base Media
Codec ID : isom
File size : 1.48 GiB
Duration : 59 min 42 s
Overall bit rate mode : Variable
Overall bit rate : 3 555 kb/s
Writing application : Lavf58.32.104

Watch Free WWE NXT UK

Video
ID : 1
Format : AVC
Format/Info : Advanced Video Codec
Codec ID : avc1
Duration : 59 min 42 s
Bit rate : 3 372 kb/s
Width : 1 280 pixels
Height : 720 pixels
Display aspect ratio : 16:9
Frame rate mode : Constant
Frame rate : 30.000 FPS
Color space : YUV
Chroma subsampling : 4:2:0
Bit depth : 8 bits
Scan type : Progressive
Bits/(Pixel*Frame) : 0.122
Stream size : 1.40 GiB (94%)

Watch Free WWE NXT  

Audio
ID : 2
Format : AAC LC
Format/Info : Advanced Audio
Codec ID : mp4a-40-2
Duration : 59 min 42 s
Bit rate mode : Variable
Bit rate : 192 kb/s
Maximum bit rate : 366 kb/s
Channel(s) : 2 channels
Channel layout : L R
Sampling rate : 48.0 kHz
Frame rate : 46.875 FPS (1024 SPF)
Compression mode : Lossy
Stream size : 82.3 MiB (5%)
Default : Yes
Alternate group : 1

Complete name : WWE.NXT.UK.2020.12.31.1080p.WEB.h264-HEEL.mp4
Format : MPEG-4
Format profile : Base Media
Codec ID : isom
File size : 3.32 GiB
Duration : 59 min 42 s
Overall bit rate mode : Variable
Overall bit rate : 7 967 kb/s
Writing application : Lavf58.32.104

Watch Free WWE 

Video
ID : 1
Format : AVC
Format/Info : Advanced Video
Duration : 59 min 42 s
Bit rate : 7 808 kb/s
Width : 1 920 pixels
Height : 1 080 pixels
Display aspect ratio : 16:9
Frame rate mode : Constant
Frame rate : 30.000 FPS
Color space : YUV
Chroma subsampling : 4:2:0
Bit depth : 8 bits
Scan type : Progressive
Bits/(Pixel*Frame) : 0.126
Stream size : 3.24 GiB (97%)

Audio
ID : 2
Format : AAC LC
Format/Info : Advanced Audio Codec
Codec ID : mp4a-40-2
Duration : 59 min 42 s
Bit rate mode : Variable
Bit rate : 192 kb/s
Maximum bit rate : 366 kb/s
Channel(s) : 2 channels
Channel layout : L R
Sampling rate : 48.0 kHz
Frame rate : 46.875 FPS (1024 SPF)
Compression mode : Lossy
Stream size : 82.3 MiB (2%)
Default : Yes
Alternate group : 1

Watch Free WWE NXT UK

 

https://dx-tv.com/

Leave a Reply

Your email address will not be published. Required fields are marked *

This site uses Akismet to reduce spam. Learn how your comment data is processed.