Watch Free WWE NXT UK 2020 12 03 1080p DX-TV

Watch Free WWE NXT UK 2020 12 03 1080p DX-TV

Watch Free WWE NXT

 Watch Free WWE NXT

 

[su_expand more_text=”Show More Info” less_text=”Close all Info” height=”30″ text_color=”#000000″ link_color=”#e25f8b” link_style=”button” more_icon=”icon: arrow-down” less_icon=”icon: arrow-up”]

 

Complete name : WWE.NXT.UK.2020.12.03.1080p.WEB.h264-HEEL.mp4
Format : MPEG-4
Format profile : Base Media
Codec ID : isom
File size : 2.32 GiB
Duration : 57 min 0 s
Overall bit rate mode : Variable
Overall bit rate : 5 829 kb/s
Writing application : Lavf58.32.104

Watch Free WWE NXT

Video
ID : 1
Format : AVC
Format/Info : Advanced
Duration : 57 min 0 s
Bit rate : 5 693 kb/s
Width : 1 920 pixels
Height : 1 080 pixels
aspect ratio : 16:9
Frame rate mode : Variable
Frame rate : 30.000 FPS
Color space : YUV
Chroma subsampling : 4:2:0
Bit depth : 8 bits
Scan type : Progressive
Bits/(Pixel*Frame) : 0.092
Stream size : 2.27 GiB (98%)
Codec configuration box : avc

Watch Free WWE NXT

Audio
ID : 2
Format : AAC LC
Format/Info : Advanced Audio
Codec ID : mp4a-40-2
Duration : 57 min 0 s
Bit rate mode : Variable
Bit rate : 125 kb/s
Maximum bit rate : 128 kb/s
Channel(s) : 2 channels
Channel layout : L R
Sampling rate : 48.0 kHz
Frame rate : 46.875 FPS (1024 SPF)
Compression mode : Lossy
Stream size : 51.1 MiB (2%)
Default : Yes
Alternate group : 1

Text #1
ID : 1-CC1
Format : EIA-608
Muxing mode : SCTE 128 / DTVCC Transport
Muxing mode, more info : Muxed in Video #1
Duration : 57 min 0 s
Bit rate mode : Constant
Stream size : 0.00 Byte (0%)
CaptionServiceName : CC1

 Free WWE NXT

Text #2
ID : 1-CC3
Format : EIA-608
Muxing mode : SCTE 128 / DTVCC Transport
Muxing mode, more info : Muxed in Video #1
Duration : 57 min 0 s
Bit rate mode : Constant
Stream size : 0.00 Byte (0%)
CaptionServiceName : CC3

Text #3
ID : 1-2
Format : EIA-708
Muxing mode : SCTE 128 / DTVCC Transport
Muxing mode, more info : Muxed in Video #1
Duration : 57 min 0 s
Bit rate mode : Constant
Stream size : 0.00 Byte (0%)

Watch Free WWE NXT

Text #4
ID : 1-3
Format : EIA-708
Muxing mode : SCTE 128 / DTVCC Transport
Muxing mode, more info : Muxed in Video #1
Duration : 57 min 0 s
Bit rate mode : Constant
Stream size : 0.00 Byte (0%)

Text #5
ID : 1-4
Format : EIA-708
Muxing mode : SCTE 128 / DTVCC Transport
Muxing mode, more info : Muxed in Video #1
Duration : 57 min 0 s
Bit rate mode : Constant
Stream size : 0.00 Byte (0%)

  WWE NXT

Text #6
ID : 1-5
Format : EIA-708
Muxing mode : SCTE 128 / DTVCC Transport
Muxing mode, more info : Muxed in Video #1
Duration : 57 min 0 s
Bit rate mode : Constant
Stream size : 0.00 Byte (0%)

Text #7
ID : 1-6
Format : EIA-708
Muxing mode : SCTE 128 / DTVCC Transport
Muxing mode, more info : Muxed in Video #1
Duration : 57 min 0 s
Bit rate mode : Constant
Stream size : 0.00 Byte (0%)

 

 

[/su_expand]

 

 

Watch online

 

Server 1

 

 

 

 

Watch Free WWE NXT

 

 

 

 

Server-2

 

 

 

 

watch now

 

 

 

 

Uploaded By Site DX-TV.com

 

 

 

 

Download Free Links with normal and high Speed [ more 14 hosts ]  

 

[su_expand more_text=”Show Hosts Info” less_text=”Close all Info” height=”30″ text_color=”#000000″ link_color=”#e25f8b” link_style=”button” more_icon=”icon: arrow-down” less_icon=”icon: arrow-up”]

Watch Free WWE NXT

 

hexupload.net – clicknupload.co – www.multiup.org

– uptobox.com – anonfiles.com – userscloud.com –

dropapk.to alfafile.net – ddownload.com – rockfile.co

– 1fichier.com – filedown.org – katfile.com – filerio.in

 

 

[/su_expand]

 

 

http://shrt10.com/V06GsH9
http://shrt10.com/sboaa
http://shrt10.com/1JxwulXk8
http://shrt10.com/YJ7ykea
http://shrt10.com/DQuJplb
http://shrt10.com/lOsLmdd

 

 

 

 

Download Links with premium High Speed   

 

 

 

 

dropapk.to

 

 

 

nitroflare.com

 

 

 

rapidgator.net

 

 

 

uploaded.net

 

 

 

uploadgig.com

 

 

https://dx-tv.com/wwe-survivor-series-2020-ppv-free-full-show-online-720p/

Leave a Reply

Your email address will not be published. Required fields are marked *

This site uses Akismet to reduce spam. Learn how your comment data is processed.