Watch Free WWE NXT UK 2019.12 12 1080p

Watch Free WWE NXT UK 2019.12 12 1080p DX-TV

 

 

WWE RAW

 

 

 

 

dx-tv.com

 

 

 

 

Watch Free WWE NXT UK 2019.12 12 1080p

 

 

 

 

 

Complete name : WWE.NXT.UK.2019.12.12.1080p.WEB.h264-HEEL.mp4
Format : MPEG-4
Format profile : Base Media
File size : 2.72 GiB
Duration : 48 min 53 s
Overall bit rate mode : Variable
Overall bit rate : 7 962 kb/s
Writing application : Lavf58.32.104

Video
ID : 1
Format : AVC
Format/Info : Advanced Video Codec
Codec ID/Info : Advanced Video Coding
Duration : 48 min 53 s
Bit rate : 7 808 kb/s
Width : 1 920 pixels
Height : 1 080 pixels
Display aspect ratio : 16:9
Frame rate mode : Constant
Frame rate : 30.000 FPS
Color space : YUV
Chroma subsampling : 4:2:0
Bit depth : 8 bits
Scan type : Progressive
Bits/(Pixel*Frame) : 0.126
Stream size : 2.65 GiB (97%)

Audio
ID : 2
Format : AAC LC
Format/Info : Advanced Audio Codec Low Complexity
Codec ID : mp4a-40-2
Duration : 48 min 53 s
Bit rate mode : Variable
Bit rate : 192 kb/s
Maximum bit rate : 423 kb/s
Channel(s) : 2 channels
Channel layout : L R
Sampling rate : 48.0 kHz
Frame rate : 46.875 FPS (1024 SPF)
Compression mode : Lossy
Stream size : 67.3 MiB (2%)
Default : Yes
Alternate group : 1

 

 

 

 

 

 

Watch online

 

 

Waiting finish converting video

 

 

Server 1

 

 

 

 

 

 

 

 

 

 

 

 

 

Server 2

 

 

 

 

 

 

 

 

 

 

Server–3

 

 

 

 

 

 

 

 

 

 

Server 4

 

 

 

 

 

 

 

 

 

 

 

Watch Free WWE NXT UK 2019.12 12 1080p

 

 

 

Uploaded By Site DX-TV.com

 

 

 

 

Download Links 

 

 

 

1fichier.com 

 

 

dailyuploads.net

 

 

dl.free.fr

 

 

earn4files.com

 

 

nitroflare.com

 

 

rapidgator.net

 

 

uploaded.net

 

 

uploadev.org

 

 

 

 

 

 

 

 

 

 

Categories

ADS



Archives