Watch Free WWE NXT 2020 12 16 720p Full Show DX-TV

Watch Free WWE NXT 2020 12 16 720p Full Show DX-TV

Watch Free WWE NXT

 Watch Free WWE NX

 

Download Links with premium High Speed   

 

 

dropapk.to

http://shrt10.com/LuaKn
http://shrt10.com/xwpzNhmI

 

 

nitroflare.com

http://shrt10.com/Ky30zE9
http://shrt10.com/8gNbX

 

 

rapidgator.net

http://shrt10.com/SuTYW4scn
http://shrt10.com/Dhsoct

 

 

uploaded.net

http://shrt10.com/D9xN8O
http://shrt10.com/ahsgHid

 

 

uploadgig.com

http://shrt10.com/H6jxBu
http://shrt10.com/Vwl7nW

 

 

 

Watch online

 

Server 1

 

 

 

 

Watch Free WWE NXT

 

 

 

 

Server-2

 

 

 

 

watch now

 

 

Uploaded By Site DX-TV.com

 

 

 

[su_expand more_text=”Show More Info” less_text=”Close all Info” height=”50″ text_color=”#000000″ link_color=”#e25f8b” link_style=”button” more_icon=”icon: arrow-down” less_icon=”icon: arrow-up”]

Complete name : WWE.NXT.2020.12.16.USAN.WEB.h264-HEEL.mp4
Format : MPEG-4
Format profile : Base Media
File size : 971 MiB
Duration : 1 h 36 min
Overall bit rate mode : Variable
Overall bit rate : 1 409 kb/s
Law rating : TV-PG (V)
Writing application : Lavf58.63.100

Free WWE NXT

Video
ID : 1
Format : AVC
Duration : 1 h 36 min
Bit rate mode : Variable
Bit rate : 1 207 kb/s
Maximum bit rate : 1 300 kb/s
Width : 960 pixels
Height : 540 pixels
Display aspect ratio : 16:9
Frame rate mode : Variable
Frame rate : 29.970 FPS
Standard : Component
Color space : YUV
Chroma subsampling : 4:2:0
Bit depth : 8 bits
Scan type : Progressive
Bits/(Pixel*Frame) : 0.078
Stream size : 832 MiB (86%)
Color range : Limited
Color primaries : BT.709
Transfer characteristics : BT.709
Matrix coefficients : BT.709
mdhd_Duration : 5779506
Codec configuration box : avc

Audio
ID : 2
Format : AAC LC
Codec ID : mp4a-40-2
Duration : 1 h 36 min
Bit rate mode : Constant
Bit rate : 192 kb/s
Channel(s) : 2 channels
Channel layout : L R
Sampling rate : 48.0 kHz
Frame rate : 46.875 FPS
Compression mode : Lossy
Stream size : 133 MiB (14%)
Language : English
Default : Yes
Alternate group : 1

Free WWE NXT

Text
ID : 1-CC1
Format : EIA-608
Muxing mode : SCTE 128 /
Muxing mode, more info : Muxed in Video #1
Duration : 1 h 36 min
Bit rate mode : Constant
Stream size : 0.00 Byte (0%)
CaptionServiceName : CC1

Complete name : WWE.NXT.16th.Dec.2020.720p.WEBRip.h264-TJ.mp4
Format : MPEG-4
Format profile : Base Media
File size : 2.45 GiB
Duration : 1 h 36 min
Overall bit rate mode : Constant
Overall bit rate : 3 633 kb/s
Law rating : TV-PG (V)
Writing application : Lavf55.33.100

 WWE NXT

Video
ID : 2
Format : AVC
Duration : 1 h 36 min
Bit rate mode : Constant
Bit rate : 3 500 kb/s
Width : 1 280 pixels
Height : 720 pixels
Display aspect ratio : 16:9
Frame rate : 29.970 FPS
Color space : YUV
Chroma subsampling : 4:2:0
Bit depth : 8 bits
Scan type : Progressive
Bits/(Pixel*Frame) : 0.127
Stream size : 2.36 GiB (96%)
Color range : Limited
Color primaries : BT.709
Transfer characteristics : BT.709
Matrix coefficients : BT.709
Codec configuration box : avcC

Audio
ID : 1
Format : AAC LC
Codec ID : mp4a-40-2
Duration : 1 h 36 min
Bit rate mode : Constant
Bit rate : 125 kb/s
Channel(s) : 2 channels
Channel layout : L R
Sampling rate : 48.0 kHz
Frame rate : 46.875 FPS (1024 SPF)
Compression mode : Lossy
Stream size : 86.4 MiB (3%)
Default : Yes
Alternate group : 1

Watch Free WWE  

Text #1
ID : 2-CC1
Format : EIA-608
Muxing mode : SCTE 128 /
Muxing mode, more info : Muxed in Video #1
Duration : 1 h 36 min
Bit rate mode : Constant
Stream size : 0.00 Byte (0%)
CaptionServiceName : CC1

Text #2
ID : 2-1
Format : EIA-708
Muxing mode : SCTE 128 /
Muxing mode, more info : Muxed in Video #1
Duration : 1 h 36 min
Bit rate mode : Constant
Stream size : 0.00 Byte (0%)

 

[/su_expand]

 

https://dx-tv.com/

You May Also Like

Leave a Reply

Your email address will not be published. Required fields are marked *

This site uses Akismet to reduce spam. Learn how your comment data is processed.