Watch Free WWE Not Sam Wrestling E02 Halloween 1080p

Free WWE Not Sam Wrestling E02 Halloween 1080p DX-TV

Watch Free WWE Not Sam Wrestling

 

 Watch Free WWE Not Sam Wrestling
 

Watch Free WWE Not Sam Wrestling E02 Halloween 1080p

 

 

Roberts announced today that “Notsam Wrestling” will premiere on the WWE Network at 10 a.m. Eastern time next Thursday (October 22).

The show will air weekly on Thursdays and will be available on both the paid and free versions of the WWE Network.

Roberts said he’ll be producing and creating the series himself from his studio. WWE Not Sam

Roberts said Notsam Wrestling on the WWE Network won’t just be a video version of his wrestling podcast .

or any other content that’s previously been available. He said it’s a brand new show and his podcast and Patreon will remain the same.

 Free WWE Not Sam Wrestling

Complete name : WWE.Not.Sam.Wrestling.E02.Halloween.1080p.WEB.h264-HEEL.mp4
Format : MPEG-4
Format profile : Base Media
Codec ID : isom
File size : 3.28 GiB
Duration : 58 min 55 s
Overall bit rate : 7 978 kb/s
Writing application : Lavf58.32.104

 Free WWE Not Sam Wrestling

Video
ID : 1
Format : AVC
Duration : 58 min 55 s
Bit rate : 7 808 kb/s
Width : 1 920 pixels
Height : 1 080 pixels
Display aspect ratio : 16:9
Frame rate mode : Constant
Frame rate : 30.000 FPS
Color space : YUV
Chroma subsampling : 4:2:0
Bit depth : 8 bits
Scan type : Progressive
Bits/(Pixel*Frame) : 0.126
Stream size : 3.20 GiB (97%)

Watch Free WWE Not Sam Wrestling

Audio
ID : 2
Format : AAC LC
Format/Info : Advanced Audio
Codec ID : mp4a-40-2
Duration : 58 min 55 s
Bit rate mode : Constant
Bit rate : 192 kb/s
Channel(s) : 2 channels
Channel layout : L R
Sampling rate : 48.0 kHz
Frame rate : 46.875 FPS
Compression mode : Lossy
Stream size : 82.0 MiB
Default : Yes
Alternate group : 1

 

Watch Free WWE Not Sam Wrestling E02 Halloween 1080p

 

 

Watch online

 

 

 

Server 1

 

 

 

 

Watch Free WWE Not Sam Wrestling

 

 

 

 

Server-2

 

 

 

watch now

 

 

 

 

Uploaded By Site DX-TV.com

 

 

 

 

Download Free Links with normal and high Speed [ more 14 hosts ]  

 

 

 

http://shrt10.com/RWIdEj
http://shrt10.com/MZYh2wwui
http://shrt10.com/dcT0H2cvW
http://shrt10.com/jqSDg
http://shrt10.com/Woy87z

 

 

 

 

Download Links with premium High Speed   

 

 

 

 

dropapk.to

 

 

 

nitroflare.com

 

 

 

rapidgator.net

 

 

 

uploaded.net

 

 

 

uploadgig.com

 

 

 

 

 

dx-tv.com

 

urlfree.net

Leave a Reply

Your email address will not be published. Required fields are marked *

This site uses Akismet to reduce spam. Learn how your comment data is processed.