Watch Free WWE 205 Live 2020 10 30 1080p

Free WWE 205 Live 2020 10 30 1080p DX-TV

Watch Free WWE 205 Live

 

 Watch Free WWE 205 Live
 

Watch Free WWE 205 Live 2020 10 30 1080p

 

Stallion collides with Daivari, Mansoor & Kendrick tangle with Ever-Rise on 205 Live

On what is sure to be a captivating edition of 205 Live, Curt Stallion is primed to slug it out with Ariya Daivari .

after last week’s fisticuffs, while Mansoor & The Brian Kendrick will team up against Ever-Rise following a backstage confrontation.

Stallion, who suffered a controversial loss to Tony Nese last week after Daivari interfered, seeks his first pinfall win on the purple brand against The Persian Lion.

During his bout against Nese, Stallion landed a blow on the meddlesome Daivari, striking him with a vicious headbutt.

With plenty of bad blood already boiling, what will happen when the 205 Live newcomer collides with the 205 OG?

Watch Free WWE 205 Live

Complete name : WWE.205.Live.2020.10.30.1080p.WEB.h264-HEEL.mp4
Format : MPEG-4
Format profile : Base Media
Codec ID : isom
File size : 1.64 GiB
Duration : 29 min 40 s
Overall bit rate mode : Variable
Overall bit rate : 7 918 kb/s
Writing application : Lavf58.32

Watch Free WWE 205 Live

Video
ID : 1
Format : AVC
Duration : 29 min 40 s
Bit rate : 7 808 kb/s
Width : 1 920 pixels
Height : 1 080 pixels
Display aspect ratio : 16:9
Frame rate mode : Constant
Frame rate : 30.000 FPS
Color space : YUV
Chroma subsampling : 4:2:0
Bit depth : 8 bits
Scan type : Progressive
Bits/(Pixel*Frame) : 0.126
Stream size : 1.60 GiB (97%)

Watch Free WWE 205 Live

Audio
ID : 2
Format : AAC LC
Format/Info : Advanced  
Codec ID : mp4a-40-2
Duration : 29 min 40 s
Bit rate mode : Variable
Bit rate : 192 kb/s
Maximum bit rate : 415 kb/s
Channel(s) : 2 channels
Channel layout : L R
Sampling rate : 48.0 kHz
Frame rate : 46.875 FPS
Compression mode : Lossy
Stream size : 40.9 MiB (2%)
Default : Yes
Alternate group : 1

 

 

 

Watch Free WWE 205 Live 2020 10 30 1080p

 

 

 

 

Watch online

 

 

 

 

 

Server 1

 

 

 

 

Watch Free WWE 205 Live

 

 

 

 

Server-2

 

 

 

watch now

 

 

 

 

 

Uploaded By Site DX-TV.com

 

 

 

 

Download Free Links with normal and high Speed [ more 14 hosts ]  

 

[su_expand more_text=”Show Hosts Info” less_text=”Close all Info” height=”30″ text_color=”#000000″ link_color=”#e25f8b” link_style=”button” more_icon=”icon: arrow-down” less_icon=”icon: arrow-up”]

Watch Free WWE 205 Live

 

hexupload.net – clicknupload.co – www.multiup.org – uptobox.com – anonfiles.com – userscloud.com –

dropapk.to alfafile.net – ddownload.com – rockfile.co – 1fichier.com – filedown.org – katfile.com – filerio.in

 

 

[/su_expand]

 

 

http://shrt10.com/iEa6J
http://shrt10.com/9FZ1Sqcbp
http://shrt10.com/d50gcPDum
http://shrt10.com/jRJG7t
http://shrt10.com/kTc7GJ
http://shrt10.com/cXQMtJAEi
http://shrt10.com/KozaoNzg
http://shrt10.com/n7E1j

 

 

 

 

Download Links with premium High Speed   

 

 

 

 

dropapk.to

 

 

 

nitroflare.com

 

 

 

rapidgator.net

 

 

 

uploaded.net

 

 

 

uploadgig.com

 

 

 

 

 

dx-tv.com

 

urlfree.net

Leave a Reply

Your email address will not be published. Required fields are marked *

This site uses Akismet to reduce spam. Learn how your comment data is processed.