Watch Free Wrestling WWE Raw 2020 10 26 Full Show Replay

WWE Monday Night Raw 2020 10 26 HDTV NWCHD DX-TV

Watch Free Wrestling WWE Raw

 

 Watch Free Wrestling WWE Raw

Watch Free Wrestling WWE Raw 2020 10 26 Full Show Replay

 

Survivor Series qualifying begins with three matches on Raw

Six Superstars will have the first opportunity to claim a spot on Team Raw for Survivor Series.

Jeff Hardy will reignite his rivalry with AJ Styles, Keith Lee will match power against Elias,

and Matt Riddle will battle Sheamus in the red brand’s first three qualifying matches.

Hardy, Styles and Sheamus are all veterans of the inter-brand battle,

while Lee and Riddle are looking for red brand breakthroughs.

Elias has never competed in the Survivor Series Elimination Match but will look to bring his “Universal Truth” to Team Raw.

Who will punch their Survivor Series tickets for the red brand tonight?

Don’t miss the three high-level qualifying matches tonight at 8/7 C on Monday Night Raw on the USA Network.

Watch Free Wrestling WWE Raw

Complete name : WWE.Monday.Night.Raw.2020.10.26.HDTV.x264-NWCHD.mp4
Format : MPEG-4
Format profile : Base Media
Codec ID : isom
File size : 1.42 GiB
Duration : 2 h 6 min
Overall bit rate : 1 608 kb/s
Writing application : Lavf58.27

Watch Free Wrestling WWE Raw

Video
ID : 1
Format : AVC
Duration : 2 h 6 min
Bit rate : 1 400 kb/s
Width : 704 pixels
Height : 400 pixels
Display aspect ratio : 16:9
aspect rat : 16:9
Frame rate mode : Variable
Frame rate : 29.970 FPS
Color space : YUV
Chroma subsampling : 4:2:0
Bit depth : 8 bits
Scan type : Progressive
Bits/(Pixel*Frame) : 0.166
Stream size : 1.24 GiB
Color primaries : BT.709
Transfer characteristics : BT.709
Matrix coefficients : BT.709
Codec configuration box : avcC

Watch Free Wrestling WWE Raw

Audio
ID : 2
Format : AAC LC
Format/Info : Advanced
Codec ID : mp4a-40-2
Duration : 2 h 6 min
Bit rate mode : Constant
Bit rate : 192 kb/s
Channel(s) : 2 channels
Channel layout : L R
Sampling rate : 48.0 kHz
Frame rate : 46.875 FPS
Compression mode : Lossy
Stream size : 173 MiB
Title : Stereo
Language : English
Default : Yes
Alternate group : 1

 

 

 

Watch Free Wrestling WWE Raw 2020 10 26 Full Show Replay

 

 

 

 

Watch online

 

 

 

 

 

Server 1

 

 

 

 

Watch Free Wrestling WWE Raw

 

 

 

Server-3

 

 

 

watch now

 

 

 

 

Uploaded By Site DX-TV.com

 

 

 

 

Download Free Links with normal and high Speed [ more 14 hosts ]  

 

 

 

 

http://shrt10.com/gd032T
http://shrt10.com/8ZJIfLCa
http://shrt10.com/EHe5s
http://shrt10.com/5NuK5otwR
http://shrt10.com/EOi8qkfx
http://shrt10.com/HFK8lLx
http://shrt10.com/du6I3td6C
http://shrt10.com/louhRO
http://shrt10.com/pI3K9kwz
http://shrt10.com/xMmOH
http://shrt10.com/Jwx1z4j1
http://shrt10.com/r1VHNa

 

 

 

Download Links with premium High Speed   

 

 

 

dropapk.to

 

 

 

nitroflare.com

 

 

 

rapidgator.net

 

 

 

uploaded.net

 

 

 

uploadgig.com

 

 

 

 

 

dx-tv.com

 

urlfree.net

Leave a Reply

Your email address will not be published. Required fields are marked *

This site uses Akismet to reduce spam. Learn how your comment data is processed.