Watch Free MMA LFA 85 720p Full Show Online

Watch Free MMA LFA 85 720p Full Show Online DX-TV

 

LFA 85
 LFA 85

 

Watch Free MMA LFA 85 720p Full Show Online

 

 

 

Complete name : LFA.85.720p.HD.mp4
Format : MPEG-4
Format profile : Base Media
Codec ID : isom
File size : 2.12 GiB
Duration : 2 h 57 min
Overall bit rate : 1 717 kb/s
Writing application : Lavf58.45.100

 Free MMA LFA 85 720p Full Show Online

Video
ID : 1
Format : AVC
Duration : 2 h 57 min
Bit rate : 1 652 kb/s
Width : 1 280 pixels
Height : 720 pixels
Display aspect ratio : 16:9
Frame rate mode : Constant
Frame rate : 25.000 FPS
Color space : YUV
Chroma subsampling : 4:2:0
Bit depth : 8 bits
Scan type : Progressive
Bits/(Pixel*Frame) : 0.072
Stream size : 2.04 GiB (96%)

 Free MMA LFA 85 720p Full Show Online

Audio
ID : 2
Format : AAC LC
Format/Info : Advanced
Codec ID : mp4a-40-2
Duration : 2 h 57 min
Bit rate mode : Constant
Bit rate : 64.0 kb/s
Channel(s) : 1 channel
Channel layout : C
Sampling rate : 44.1 kHz
Frame rate : 43.066 FPS
Compression mode : Lossy
Stream size : 81.1 MiB (4%)
Default : Yes
Alternate group : 1

Free MMA LFA 85 720p Full Show Online

LFA 86 Results:

Jimmy Flick def. Greg Fischer by submission (arm-triangle choke), Round 1, 0:38 – for the vacant LFA flyweight title

Arthur Estrazulas def. Dominic Clark by submission (rear-naked choke), Round 1, 3:26

Fabio Cherant def. Erick Murray by submission (anaconda choke), Round 1, 0:57

Mando Gutierrez def. Jeff Jepsen by submission (rear-naked choke), Round 1, 1:57

Mark Martin def. Tony Grant by TKO, Round 1, 3:52

Jordan Heiderman def. Jacob Heavlin by unanimous decision (28-29, 29-28, 29-28)

Watch Free MMA LFA 85 720p Full Show Online

Nate Morrow vs. Calvin Harbaugh

Legacy Fighting Alliance opted to book four events for their July return, and Friday night’s LFA 86 marked the third of those. Emanating from Sioux Falls,

South Dakota, the card boasted a flyweight title fight in the main event. That saw Greg Fischer, making his promotional debut, taking on Jimmy Flick.

Unlike Fischer, Flick had history with LFA, dating right back to Legacy FC. He also had a win over UFC alum Johnny Bedford to his name.

 

 

Watch Free MMA LFA 85 720p Full Show Online

 

 

 

Watch online

 

 

Server 1

 

 

 

 

LFA 85

 

 

 

 

Server 2

 

 

 

watch now

 

 

 

Server-3

 

 

 

LFA 85

 

 

 

Uploaded By Site DX-TV.com

 

 

 

Download with premium account Links 

 

 

Keep2Share

 

 

nitroflare.com

 

 

rapidgator.net

 

 

uploadgig.com

 

 

 

dx-tv.com

 

urlfree.net

 135 total views,  1 views today

Leave a Reply

Your email address will not be published. Required fields are marked *

This site uses Akismet to reduce spam. Learn how your comment data is processed.

%d bloggers like this: