Watch Free iMPACT Wrestling 2020 12 08 720p /1080p DX-TV

Watch Free iMPACT Wrestling 2020 12 08 HDTV NWCHD /720p /1080p DX-TV

Watch Free iMPACT Wrestling

 

 Watch Free iMPACT Wrestling

 

[su_expand more_text=”Show More Info” less_text=”Close all Info” height=”50″ text_color=”#000000″ link_color=”#e25f8b” link_style=”button” more_icon=”icon: arrow-down” less_icon=”icon: arrow-up”]
Complete name : iMPACT.Wrestling.2020.12.08.HDTV.x264-NWCHD.mp4
Format : MPEG-4
Format profile : Base Media
Codec ID : isom
File size : 966 MiB
Duration : 1 h 26 min
Overall bit rate : 1 570 kb/s
Writing application : Lavf58.27.103

Watch Free iMPACT Wrestling

Video
ID : 1
Format : AVC
Duration : 1 h 26 min
Bit rate : 1 400 kb/s
Width : 704 pixels
Height : 400 pixels
Display aspect ratio : 16:9
Frame rate mode : Variable
rate : 29.970 (30000/1001) FPS
Color space : YUV
Chroma subsampling : 4:2:0
Bit depth : 8 bits
Scan type : Progressive
Bits/(Pixel*Frame) : 0.166
Stream size : 843 MiB (87%)
Color primaries : BT.709
Transfer characteristics : BT.709
Matrix coefficients : BT.709
Codec configuration box : avc

Watch Free iMPACT Wrestling

Audio
ID : 2
Format : AAC LC
Format/Info : Advanced Audio
Codec ID : mp4a-40-2
Duration : 1 h 26 min
Bit rate mode : Constant
Bit rate : 192 kb/s
Channel(s) : 2 channels
Channel layout : L R
Sampling rate : 48.0 kHz
Frame rate : 46.875 FPS
Compression mode : Lossy
Stream size : 118 MiB (12%)
Title : Stereo
Language : English
Default : Yes
Alternate group : 1

Complete name : iMPACT.Wrestling.2020.12.08.720p.HDTV.x264-NWCHD.mp4
Format : MPEG-4
Format profile : Base Media
Codec ID : isom
File size : 2.78 GiB
Duration : 1 h 26 min
Overall bit rate : 4 627 kb/s
Writing application : Lavf58.51.101

Video
ID : 1
Format : AVC
Duration : 1 h 26 min
Bit rate : 4 500 kb/s
Width : 1 280 pixels
Height : 720 pixels
Display aspect ratio : 16:9
Frame rate mode : Variable
Frame rate : 29.970 FPS
Color space : YUV
Chroma subsampling : 4:2:0
Bit depth : 8 bits
Scan type : Progressive
Bits/(Pixel*Frame) : 0.163
Stream size : 2.66 GiB (96%)
Color primaries : BT.709
Transfer characteristics : BT.709
Matrix coefficients : BT.709
Codec configuration box : avc

 Free iMPACT Wrestling

Audio
ID : 2
Format : AAC LC
Format/Info : Advanced Audio
Codec ID : mp4a-40-2
Duration : 1 h 26 min
Bit rate mode : Constant
Bit rate : 192 kb/s
Channel(s) : 2 channels
Channel layout : L R
Sampling rate : 48.0 kHz
Frame rate : 46.875 FPS (1024 SPF)
Compression mode : Lossy
Stream size : 118 MiB (4%)
Title : Stereo
Language : English
Default : Yes
Alternate group : 1

Complete name : iMPACT.Wrestling.2020.12.08.1080p.WEB.h264-HEEL.mp4
Format : MPEG-4
Format profile : Base Media
Codec ID : isom
File size : 4.45 GiB
Duration : 1 h 26 min
Overall bit rate mode : Variable
Overall bit rate : 7 399 kb/s
Writing application : Lavf58.32.104

  iMPACT Wrestling

Video
ID : 1
Format : AVC
Duration : 1 h 26 min
Bit rate : 7 199 kb/s
Nominal bit rate : 8 500 kb/s
Width : 1 920 pixels
Height : 1 080 pixels
Display aspect ratio : 16:9
Frame rate mode : Constant
Frame rate : 29.970 (30000/1001) FPS
Color space : YUV
Chroma subsampling : 4:2:0
Bit depth : 8 bits
Scan type : Progressive
Bits/(Pixel*Frame) : 0.116
Stream size : 4.33 GiB (97%)

Audio
ID : 2
Format : AAC LC
Format/Info : Advanced Audio
Codec ID : mp4a-40-2
Duration : 1 h 26 min
Bit rate mode : Variable
Bit rate : 192 kb/s
Maximum bit rate : 202 kb/s
Channel(s) : 2 channels
Channel layout : L R
Sampling rate : 48.0 kHz
Frame rate : 46.875 FPS
Compression mode : Lossy
Stream size : 117 MiB (3%)
Default : Yes
Alternate group : 1

 

Watch Free iMPACT Wrestling

[/su_expand]

 

 

Watch online

 

Server 1

 

 

 

 

Watch Free iMPACT Wrestling

 

 

 

 

Server-2

 

 

 

 

watch now

 

 

 

 

Uploaded By Site DX-TV.com

 

Watch Free iMPACT Wrestling

Download Links with premium High Speed   

 

 

 

 

dropapk.to

http://shrt10.com/MIrfiYkF
http://shrt10.com/Pdg5JvW9

http://shrt10.com/xvqvD            1080p

 

nitroflare.com

http://shrt10.com/QxEI3
http://shrt10.com/i45IT

http://shrt10.com/ssDbK        1080p

 

rapidgator.net

http://shrt10.com/TXeZd
http://shrt10.com/1uTsl

http://shrt10.com/pxPWvyT          1080p

 

uploaded.net

http://shrt10.com/wnySSlosj
http://shrt10.com/Qvl6vx

http://shrt10.com/KlmHN2    1080p

 

uploadgig.com

http://shrt10.com/6DVf8rrhk
http://shrt10.com/YtOZZ

http://shrt10.com/36IWXZ        1080p

https://dx-tv.com/ufc-fight-night-73-teixeira-vs-saint-preux-hdtv-x264-dx-tv720p/

You May Also Like

Leave a Reply

Your email address will not be published. Required fields are marked *

This site uses Akismet to reduce spam. Learn how your comment data is processed.