Watch Free Bellator 250 Prelims Mousasi vs Lima 720p

Free Bellator 250 Prelims Mousasi vs Lima 720p DX-TV

Watch Free Bellator 250

 

 Watch Bellator 250 Free

 

Watch Free Bellator 250 Prelims Mousasi vs Lima 720p

 

Complete name : Bellator 250 Mousasi vs Lima Prelims.720p BY DX-TV.COM.mp4
Format : MPEG-4
Format profile : Base Media
Codec ID : isom
File size : 3.29 GiB
Duration : 1 h 54 min
Overall bit rate mode : Variable
Overall bit rate : 4 109 kb/s

Watch Free Bellator 250

Video
ID : 1
Format : AVC
Duration : 1 h 54 min
Bit rate : 3 978 kb/s
Width : 1 920 pixels
Height : 1 080 pixels
Display aspect ratio : 16:9
Frame rate mode : Constant
Frame rate : 29.970 FPS
Color space : YUV
Chroma subsampling : 4:2:0
Bit depth : 8 bits
Scan type : Progressive
Bits/(Pixel*Frame) : 0.064
Stream size : 3.18 GiB (97%)
Color range : Limited
Color primaries : BT.709
Transfer characteristics : BT.709
Matrix coefficients : BT.709
Codec configuration box : avcC

Watch Free Bellator 250

Audio
ID : 2
Format : AAC LC
Format/Info : Advanced Audi
Codec ID : mp4a-40-2
Duration : 1 h 54 min
Bit rate mode : Variable
Bit rate : 128 kb/s
Channel(s) : 2 channels
Channel layout : L R
Sampling rate : 44.1 kHz
Frame rate : 43.066 FPS (1024 SPF)
Compression mode : Lossy
Stream size : 105 MiB (3%)
Language : English
Default : Yes
Alternate group : 1

Watch Free Bellator 250

WHEN IS GEGARD MOUSASI VS. DOUGLAS LIMA AT BELLATOR 250?

  • Date: Thursday, Oct. 29
  • Prelims: 5:15 p.m. ET
  • Main card: 8 p.m. ET 

Bellator 250 takes place on Thursday, Oct. 29.  Prelims get underway at 5:15 p.m. ET, followed by the main card at 8 p.m. ET.

Mousasi and Lima should start about 9:30 p.m. ET, but the time depends on the length of the earlier fights.

 Free Bellator 250

HOW TO WATCH BELLATOR 250: MOUSASI VS. LIMA TV, LIVE STREAM INFO

In the United States, the Bellator 250 prelims and main card are available on DAZN.

The main card is also available on CBS Sports Network.

In Canada, Bellator 250 is available on DAZN.

In Germany, the main card (1:00 a.m. CET) is available on DAZN.

 

Watch Free Bellator 250 Prelims Mousasi vs Lima 720p

 

 

 

 

Watch online

 

 

 

 

 

Server 1

 

 

 

 

Watch Free Bellator 250

 

 

 

 

Server-2

 

 

 

watch now

 

 

 

 

 

Uploaded By Site DX-TV.com

 

Download Links with premium High Speed   

 

 

 

 

dropapk.to

 

 

 

nitroflare.com

 

 

 

rapidgator.net

 

 

 

uploaded.net

 

 

 

uploadgig.com

 

 

 

 

 

dx-tv.com

 

urlfree.net

Leave a Reply

Your email address will not be published. Required fields are marked *

This site uses Akismet to reduce spam. Learn how your comment data is processed.