Watch Free AJPW New Year Wars Day 2 2020 01 03

Watch Free AJPW New Year Wars Day 2 2020 01 03 DX-TV

 

 

AJPW

 

 

dx-tv.com

 

 

 

Watch Free AJPW New Year Wars Day 2 2020 01 03

 

 

Complete name : AJPW Watch Free 2020.01.03 – New Year Wars Day 2.mp4
Format : MPEG-4
Format profile : Base Media
File size : 2.60 GiB
Duration : 3 h 12 min
Overall bit rate : 1 942 kb/s
Writing application : Lavf58.29.100

Video
ID : 1
Format : AVC
Format/Info : Advanced Video Codec
Codec ID : avc1
Codec ID/Info : Advanced Video Coding
Duration : 3 h 12 min
Bit rate : 1 837 kb/s
Width : 1 280 pixels
Height : 720 pixels
Display aspect ratio : 16:9
Frame rate : 29.970 (29970/1000) FPS
Color space : YUV
Chroma subsampling : 4:2:0
Bit depth : 8 bits
Scan type : Progressive
Bits/(Pixel*Frame) : 0.067
Stream size : 2.46 GiB (95%)
Color range : Full
Color primaries : BT.709
Transfer characteristics : BT.709
Matrix coefficients : BT.709
Codec configuration box : avcC

Audio
ID : 2
Format : AAC LC
Format/Info : Advanced Audio Codec Low Complexity
Codec ID : mp4a-40-2
Duration : 3 h 12 min
Bit rate mode : Constant
Bit rate : 96.0 kb/s
Channel(s) : 2 channels
Channel layout : L R
Sampling rate : 48.0 kHz
Frame rate : 46.875 FPS (1024 SPF)
Compression mode : Lossy
Stream size : 132 MiB (5%)
Language : English
Default : Yes
Alternate group : 1

 

 

 

 

 

 

Watch online

 

 

Server 1

 

 

 

 

<

 

 

 

 

 

 

Server 2

 

 

 

 

 

 

 

 

 

 

Server–3

 

 

 

 

 

 

 

 

 

Watch Free AJPW New Year Wars Day 2 2020 01 03

 

 

 

Uploaded By Site DX-TV.com

 

 

 

 

 

Download VIP Members FTP server Download 1 Link and Free Links 

 

 

 

Limited Time will be removed after 60 days if you need available again pm email admin

 

[member]

FTP Link Download high speed

 

 

 

1fichier.com 

 

 

dl.free.fr

 

[/member]

 

 

Download with premium account Links 

 

 

earn4files.com

 

 

nitroflare.com

 

 

rapidgator.net

 

 

uploaded.net

 

 

 

 

 

 

 

 

 

 185 total views,  6 views today

%d bloggers like this: