Watch Free AEW Dynamite 2020 10 14 720p

Watch Free AEW Dynamite 2020 10 14 720p DX-TV

 

AEW Dynamite 2020 10 14

 

 AEW Dynamite 2020 10 14

 

Watch Free AEW Dynamite 2020 10 14 720p

 

Up next: Kip Sabian (with fiancé Penelope Ford) & “The Best Man” Miro vs. Sean Maluta & Lee Johnson!

Miro was mauling Lee and Sean! Sabian tagged in to pick up the scraps and splashed Maluta with a diving body press.

Miro tagged back in and applied his “Game Over” finisher and left Maluta no choice but to tap!

Miro, still outraged that Best Friends damaged Kip’s arcade machine, grabbed the microphone and said, “Good Friends,

AEW Dynamite 2020 10 14

Backstage Lance Archer was attacking champ Jon Moxley!

AEW officials had to pry Archer away from Mox!

Time for MJF’s Big Announcement!

MJF walked out to the ring with Wardlow. “I’m not here to get on top, I’m here to stay on top, baby,” said MJF.

He then introduced “Demo God” Chris Jericho and invited him out to the ring.

Jericho and the Inner Circle walked out, all wearing Inner Circle jackets gifted to them by MJF, except Sammy Guevara.

Jericho ordered Sammy to put the jacket on because it was a gift. The jacket was five sizes too large for Sammy.

“Wow, fits like a glove,” said MJF.

MJF started complimenting Jericho’s physique and his full head of hair.

“All right, Max, cut the s—t! You promised a groundbreaking announcement so let’s hear it,” said Jericho.

AEW Dynamite 2020 10 14

“Chris, we’ve never gotten physical in an AEW ring, You never see two piranhas eating each other, you know why?

Mutual respect, and we’re two predators swimming around prey.

Unfortunately our prey is adapting and we’re going to need to adapt if we want to stay on top.

So Chris, what if we work together?” asked MJF.

 

AEW Dynamite 2020 10 14

Complete name : AEW.Dynamite.2020.10.14.720p.WEB.h264-HEEL.mp4
Format : MPEG-4
Format profile : Base Media
Codec ID : isom
File size : 1.64 GiB
Duration : 2 h 0 min
Overall bit rate : 1 944 kb/s
Writing application : Lavf58.32

AEW Dynamite 2020 10 14

Video
ID : 1
Format : AVC
Duration : 2 h 0 min
Bit rate : 1 838 kb/s
Width : 1 280 pixels
Height : 720 pixels
aspect ratio : 16:9
Frame rate mode : Variable
Frame rate : 29.970 FPS
Color space : YUV
Chroma subsampling : 4:2:0
Bit depth : 8 bits
Scan type : Progressive
Bits/(Pixel*Frame) : 0.067
Stream size : 1.55 GiB
Codec configuration box : avcC

AEW Dynamite 2020 10 14

Audio
ID : 2
Format : AAC LC
Format/Info : Advanced
Codec ID : mp4a-40-2
Duration : 2 h 0 min
Bit rate mode : Constant
Bit rate : 96.0 kb/s
Channel(s) : 2 channels
Channel layout : L R
Sampling rate : 48.0 kHz
Frame rate : 46.875 FPS
Compression mode : Lossy
Stream size : 83.2 MiB (5%)
Default : Yes
Alternate group : 1

 

 

 

Watch Free AEW Dynamite 2020 10 14 720p

 

 

Watch online

 

 

 

Server 1

 

 

watch now

 

 

 

 

Server-2

 

 

 

watch now

 

 

 

 

Server-3

 

 

 

AEW Dynamite 2020 10 14

 

 

 

 

Uploaded By Site DX-TV.com

 

 

 

 

Download Free Links with normal and high Speed [ more 14 hosts ]  

 

 

 

 

http://shrt10.com/jUkzE87
http://shrt10.com/Hs1IdeR
http://shrt10.com/upVJ3
http://shrt10.com/L2WMdKFfk
http://shrt10.com/9PXGvM
http://shrt10.com/ntNMdn3aC
http://shrt10.com/UR4ThmB
http://shrt10.com/hvRM5
http://shrt10.com/qgKE2r
http://shrt10.com/fLHMUCAYG
http://shrt10.com/50aaf
http://shrt10.com/Tohz3tAZg

 

 

 

Download Links with premium High Speed   

 

 

 

 

dropapk.to

 

 

 

nitroflare.com

 

 

 

rapidgator.net

 

 

 

uploaded.net

 

 

 

uploadgig.com

 

 

 

 

 

dx-tv.com

 

urlfree.net

Leave a Reply

Your email address will not be published. Required fields are marked *

This site uses Akismet to reduce spam. Learn how your comment data is processed.