Watch Final Resolution 2020 iMPACT Wrestling Free DX-TV

Watch Final Resolution 2020 iMPACT Wrestling 720p/ 1080p DX-TV

Watch Final Resolution 2020

 Watch Final Resolution 2020

 

Download Links with premium High Speed   

 

 

dropapk.to

http://shrt10.com/UhJ0SQ2L
http://shrt10.com/DGceK4N

 

 

nitroflare.com

http://shrt10.com/El6OnEK
http://shrt10.com/KShLjIj

 

 

rapidgator.net

http://shrt10.com/tffbklS
http://shrt10.com/oU6PXQ6rp

 

 

uploaded.net

http://shrt10.com/Nm3vpvt

 

 

uploadgig.com

http://shrt10.com/SBeDUp
http://shrt10.com/fxTpwoZb

 

Watch online

 

Server 1

 

 

 

 

Watch Final Resolution 2020

 

 

 

 

Server-2

 

 

 

 

watch now

 

Uploaded By Site DX-TV.com

 

[su_expand more_text=”Show More Info” less_text=”Close all Info” height=”50″ text_color=”#000000″ link_color=”#e25f8b” link_style=”button” more_icon=”icon: arrow-down” less_icon=”icon: arrow-up”]
Complete name : iMPACT.Wrestling.Final.Resolution.2020.720p.WEB-DL.h264-TJ.mp4
Format : MPEG-4
Format profile : Base Media
File size : 2.33 GiB
Duration : 2 h 43 min
Overall bit rate mode : Variable
Overall bit rate : 2 043 kb/s

 Final Resolution 2020

Video
ID : 1
Format : AVC
Duration : 2 h 43 min
Bit rate : 1 935 kb/s
Width : 1 280 pixels
Height : 720 pixels
Display aspect ratio : 16:9
Frame rate mode : Variable
Frame rate : 29.970 FPS
Color space : YUV
Chroma subsampling : 4:2:0
Bit depth : 8 bits
Scan type : Progressive
Bits/(Pixel*Frame) : 0.070
Stream size : 2.21 GiB (95%)
Codec configuration box : avc

Watch Final Resolution 2020

Audio
ID : 2
Format : AAC LC
Format/Info : Advanced Audio
Codec ID : mp4a-40-2
Duration : 2 h 43 min
Bit rate mode : Variable
Bit rate : 96.0 kb/s
Maximum bit rate : 132 Mb/s
Channel(s) : 2 channels
Channel layout : L R
Sampling rate : 48.0 kHz
Frame rate : 46.875 FPS
Compression mode : Lossy
Stream size : 113 MiB (5%)
Default : Yes
Alternate group : 1

Final Resolution 2020

Complete name : iMPACT.Wrestling.Final.Resolution.2020.1080p.WEB-DL.h264-TJ.mp4
Format : MPEG-4
File size : 5.18 GiB
Duration : 2 h 43 min
Overall bit rate mode : Variable
Overall bit rate : 4 531 kb/s

Video
ID : 1
Format : AVC
Duration : 2 h 43 min
Bit rate : 4 422 kb/s
Width : 1 920 pixels
Height : 1 080 pixels
Display aspect ratio : 16:9
Frame rate mode : Variable
rate : 29.970 (30000/1001) FPS
Color space : YUV
Chroma subsampling : 4:2:0
Bit depth : 8 bits
Scan type : Progressive
Bits/(Pixel*Frame) : 0.071
Stream size : 5.06 GiB (98%)

 Final Resolution 2020

Audio
ID : 2
Format : AAC LC
Codec ID : mp4a-40-2
Duration : 2 h 43 min
Bit rate mode : Variable
Bit rate : 96.0 kb/s
Maximum bit rate : 132 Mb/s
Channel(s) : 2 channels
Channel layout : L R
Sampling rate : 48.0 kHz
Frame rate : 46.875 FPS (1024 SPF)
Compression mode : Lossy
Stream size : 113 MiB (2%)
Default : Yes
Alternate group : 1

 Final Resolution 2020

[/su_expand]

 

https://dx-tv.com/

Leave a Reply

Your email address will not be published. Required fields are marked *

This site uses Akismet to reduce spam. Learn how your comment data is processed.