Watch EVOLVE 140 720p

Watch EVOLVE 140 720p 11 10 2019 WEB DX-TV

 

 

EVOLVE 140

 

 

 

 

dx-tv.com

 

 

 

 

Watch EVOLVE 140 720p

 

 

 

 

 

Complete name : EVOLVE 140 720p 11-10-2019 WEB x264 DX-TV.mp4
Format : MPEG-4
Format profile : Base Media / Version 2
Codec ID : mp42 (mp42)
File size : 2.32 GiB
Duration : 2 h 44 min
Overall bit rate : 2 016 kb/s
Video
ID : 1
Format : AVC
Format/Info : Advanced Video Codec
Codec ID/Info : Advanced Video Coding
Duration : 2 h 44 min
Bit rate : 1 914 kb/s
Width : 1 280 pixels
Height : 720 pixels
Display aspect ratio : 16:9
Frame rate mode : Constant
Frame rate : 29.970 (30000/1001) FPS
Color space : YUV
Chroma subsampling : 4:2:0
Bit depth : 8 bits
Scan type : Progressive
Bits/(Pixel*Frame) : 0.069
Stream size : 2.21 GiB (95%)
Language : English
Codec configuration box : avcC

Audio
ID : 2
Format : AAC LC
Format/Info : Advanced Audio Codec Low Complexity
Codec ID : mp4a-40-2
Duration : 2 h 44 min
Bit rate mode : Constant
Bit rate : 96.0 kb/s
Channel(s) : 2 channels
Channel layout : L R
Sampling rate : 48.0 kHz
Frame rate : 46.875 FPS (1024 SPF)
Compression mode : Lossy
Stream size : 113 MiB (5%)
Title : Stereo
Language : English
Default : Yes

 

 

 

 

 

 

Watch online

 

 

Waiting finish converting video

 

 

Server 1

 

 

 

 

 

 

 

watch now

 

 

 

 

 

 

Server 2

 

 

 

 

 

 

 

watch now

 

 

 

 

 

 

 

 

Uploaded By Site DX-TV.com

 

 

 

 

 

Watch EVOLVE 140 720p

 

 

 

 

 

 

Recommended For Free

 

 

 

 

earn4files.com

 

 

 

 

clicknupload.org

 

 

 

 

 

Download with high speed with Premium account

 

 

 

 

nitroflare.com

 

 

 

 

rapidgator.net

 

 

 

 

uploaded.net

 

 

 

 

 

You May Also Like

1 Comment

Comments are closed.