Watch EVOLVE 111 720p

Watch EVOLVE 111 720p

 

 

 

 


 

 

dx-tv.com

 

 

 

 

 

 

Complete name : EVOLVE 111.mp4
Format : MPEG-4
Format profile : Base Media
File size : 1.99 GiB
Duration : 2 h 40 min
Overall bit rate : 1 774 kb/s
Writing application : Lavf57.56.100

Video
ID : 1
Format : AVC
Format/Info : Advanced Video Codec
Codec ID : avc1
Codec ID/Info : Advanced Video Coding
Duration : 2 h 40 min
Bit rate : 1 680 kb/s
Width : 1 280 pixels
Height : 720 pixels
Display aspect ratio : 16:9
Frame rate mode : Variable
Frame rate : 29.539 FPS
Minimum frame rate : 0.098 FPS
Maximum frame rate : 31.458 FPS
Color space : YUV
Chroma subsampling : 4:2:0
Bit depth : 8 bits
Scan type : Progressive
Bits/(Pixel*Frame) : 0.062
Stream size : 1.88 GiB (95%)
Writing library : x264 core 136

Audio
ID : 2
Format : AAC
Format/Info : Advanced Audio Codec
Format profile : LC
Codec ID : mp4a-40-2
Duration : 2 h 40 min
Bit rate mode : Constant
Bit rate : 84.5 kb/s
Channel(s) : 2 channels
Channel positions : Front: L R
Sampling rate : 44.1 kHz
Frame rate : 43.066 FPS (1024 SPF)
Compression mode : Lossy
Stream size : 96.9 MiB (5%)
Default : Yes
Alternate group : 1

 

 

 

 

 

 

 

Watch EVOLVE 111 720p

 

 

 

 

Watch online

 

 

Waiting finish converting video

 

 

Server 1

 

 

 

 

 

 

 

 

 

 

 

 

 

 

 

 

 

 

 

 

Server 2

 

 

 

 

 

 


 

 

 

 

 

 

 

 

Uploaded By Site DX-TV.com

 

 

 

open rar file to see this password

 

 

 

 

The password : DX-TV.com

 

 

 

 

Uploaded.net + rapidgator.net

 

 

 

 

 

 

http://shrt10.com/o5N3ErOd
 

 
http://shrt10.com/VXMkSSj

 

 

 

 

 

 

 

 

Watch EVOLVE 111 720p