Watch Dragon Gate The Gate of Evolution 11/29/2019

Free Watch Online Watch Dragon Gate The Gate of Evolution 11/29/2019 Japan DX-TV

 

 

Dragon Gate

 

 

 

 

dx-tv.com

 

 

 

 

Watch Dragon Gate The Gate of Evolution 11/29/2019

 

 

 

 

 

Complete name : Dragon Gate The Gate of Evolution 11.29.2019 Day 15 Japan WEB x264 DX-TV.mp4
Format : MPEG-4
Format profile : Base Media
File size : 2.33 GiB
Duration : 2 h 5 min
Overall bit rate mode : Variable
Overall bit rate : 2 666 kb/s
Movie name : chunklist_dvr.m3u8
Writing application : Lavf57.48.100

Video
ID : 1
Format : AVC
Codec ID : avc1
Duration : 2 h 5 min
Bit rate mode : Variable
Bit rate : 2 468 kb/s
Maximum bit rate : 2 703 kb/s
Width : 1 280 pixels
Height : 720 pixels
Display aspect ratio : 16:9
Frame rate mode : Variable
Frame rate : 29.970 (29970/1000) FPS
Minimum frame rate : 19.617 FPS
Maximum frame rate : 32.269 FPS
Original frame rate : 30.000 FPS
Standard : NTSC
Color space : YUV
Chroma subsampling : 4:2:0
Bit depth : 8 bits
Scan type : Progressive
Bits/(Pixel*Frame) : 0.089
Stream size : 2.16 GiB (93%)
Color range : Limited
Color primaries : BT.709
Transfer characteristics : BT.709
Matrix coefficients : BT.709
Codec configuration box : avcC

Audio
ID : 2
Format : AAC LC
Format/Info : Advanced Audio Codec Low Complexity
Codec ID : mp4a-40-2
Duration : 2 h 5 min
Bit rate mode : Variable
Bit rate : 192 kb/s
Maximum bit rate : 196 kb/s
Channel(s) : 2 channels
Channel layout : L R
Sampling rate : 48.0 kHz
Frame rate : 46.875 FPS (1024 SPF)
Compression mode : Lossy
Stream size : 170 MiB (7%)
Default : Yes
Alternate group : 1

 

 

 

 

 

 

Watch online

 

Server 1

 

 

 

 

 

 

 

 

 

 

 

 

 

Server 2

 

 

 

 

 

 

 

 

 

 

 

 

 

 

 

Uploaded By Site DX-TV.com

 

 

 

 

 

Watch Dragon Gate The Gate of Evolution 11/29/2019

 

 

 

 

 

 

Recommended For Free

 

 

 

 

earn4files.com

 

 

 

 

Download with high speed Premium account

 

 

 

 

nitroflare.com

 

 

 

rapidgator.net

 

 

 

uploaded.net

 

 

 

 

 

 

 

 

 

 

Categories

Earn money $25 as per 1000

103