Watch Dragon Gate The Gate Of Adventure 2019 08 10

Free Watch Dragon Gate The Gate Of Adventure 2019 08 10 Day 4 Naruki Doi Homecoming 720p DX-TV Full Show online

 

 

 

 

 

 

 

 

dx-tv.com

 

 

 

shrt10.com

 

 

 

 

 

 

 

 

 

 

Watch Dragon Gate The Gate Of Adventure 2019 08 10

 

 

 

 

 

 

Shrt10.com

now we have new very high rate

we are paying with up to $25/1000 visits.​

you can start now

Minimum payment $5

  • you can earn up to 25 $ / 1000 unique views.

  • Payout via PayPal, Webmoney, BitCoins.

  • Real time stats, updated every 15 minute

  • You earn for all countries traffic

  • Payments max weekly 

  • Advanced statistics

 

 

 

 

 

 

 

 

Watch Dragon Gate The Gate Of Adventure 2019 08 10

 

 

 

 

 

Complete name :Dragon.Gate.2019.08.10.The.Gate.Of.Adventure.2019.Day.4.Naruki.Doi.Homecoming.720p.WEB.h264-H33B.mp4
Format : MPEG-4
Format profile : Base Media
Codec ID : isom (isom/iso2/avc1/mp42)
File size : 2.65 GiB
Duration : 2 h 48 min
Overall bit rate mode : Variable
Overall bit rate : 2 257 kb/s

Video
ID : 2
Format : AVC
Format/Info : Advanced Video Codec
Codec ID/Info : Advanced Video Coding
Duration : 2 h 48 min
Bit rate mode : Variable
Bit rate : 2 060 kb/s
Maximum bit rate : 2 253 kb/s
Width : 1 280 pixels
Height : 720 pixels
Display aspect ratio : 16:9
Frame rate mode : Variable
Frame rate : 29.970 (29970/1000) FPS
Minimum frame rate : 19.608 FPS
Maximum frame rate : 33.333 FPS
Original frame rate : 30.000 FPS
Standard : NTSC
Color space : YUV
Chroma subsampling : 4:2:0
Bit depth : 8 bits
Scan type : Progressive
Bits/(Pixel*Frame) : 0.075
Stream size : 2.42 GiB (91%)
Color range : Limited
Color primaries : BT.709
Transfer characteristics : BT.709
Matrix coefficients : BT.709
Codec configuration box : avcC

Audio
ID : 1
Format : AAC LC
Format/Info : Advanced Audio Codec Low Complexity
Codec ID : mp4a-40-2
Duration : 2 h 48 min
Bit rate mode : Constant
Bit rate : 192 kb/s
Channel(s) : 2 channels
Channel layout : L R
Sampling rate : 48.0 kHz
Frame rate : 46.875 FPS (1024 SPF)
Compression mode : Lossy
Stream size : 228 MiB (8%)
Default : Yes
Alternate group : 1

 

 

 

 

 

 

Watch online

 

 

Waiting finish converting video

 

 

Server 1

 

 

 

 

 

 

 

 

 

 

 

 

 

 

 

Server 2

 

 

 

 

 

 

 

 

 

 

 

 

 

 

Uploaded By Site DX-TV.com

 

 

 

Downloading Links

 

 

 

 

 

 

bitster.cz

 

 

 

 

nitroflare.com

 

 

 

 

rapidgator.net

 

 

 

 

 

uploaded.net

 

 

 

 

 

Leave a Reply

Your email address will not be published. Required fields are marked *