Watch Dragon Gate of Destiny PPV 2019 Japan 720p

Watch Dragon Gate of Destiny PPV 11/04/2019 Japan 720p DX-TV

 

 

 

 

 

 

dx-tv.com

 

 

 

 

Watch Dragon Gate of Destiny PPV 2019 Japan 720p

 

 

 

Complete name : Dragon Gate of Destiny 11-04-2019 Japan 720p WEB x264 DX-TV.mp4
Format : MPEG-4
Format profile : Base Media
Codec ID : mp42 (mp42)
File size : 4.93 GiB
Duration : 4 h 15 min
Overall bit rate : 2 759 kb/s

Video
ID : 1
Format : AVC
Duration : 4 h 15 min
Bit rate : 2 623 kb/s
Width : 1 280 pixels
Height : 720 pixels
Display aspect ratio : 16:9
Frame rate mode : Constant
Frame rate : 30.000 FPS
Color space : YUV
Chroma subsampling : 4:2:0
Bit depth : 8 bits
Scan type : Progressive
Bits/(Pixel*Frame) : 0.095
Stream size : 4.69 GiB (95%)
Language : English

Audio
ID : 2
Format : AAC LC
Codec ID : mp4a-40-2
Duration : 4 h 15 min
Bit rate mode : Constant
Bit rate : 128 kb/s
Channel(s) : 2 channels
Channel layout : L R
Sampling rate : 48.0 kHz
Frame rate : 46.875 FPS (1024 SPF)
Compression mode : Lossy
Stream size : 234 MiB (5%)
Title : Stereo
Language : English
Default : Yes

 

The Gate of Destiny (2019) is an upcoming professional wrestling pay-per-view (PPV) and GAORA TV event promoted by Dragon

Gate. The event will take place on November 4, 2019, in Osaka at the Edion Arena Osaka and it was the thirteenth annual event under

the Gate of Destiny. The event wil be also available in their streaming service Dragon Gate Network in both English and Japanese

commentaries and will be broadcasted live at SKY PerfecTV! as pay-per-view (PPV).

The event was main event by Masato Yoshino defending the Open The Dream Gate Championship against Ben-K in a rematch from the previous

 Gate of Destiny.

 

 

BXB HULK, KAI, YOSUKE SANTA MARIA VS. YUKI YOSHIOKA,

KEISUKE OKUDA, KOTA MINOURA

 

 

 Nothing is going to fire me up more than a beefed-up Keisuke Okuda throwing around a beefed-up KAI. Give me fighting spirit in

the opening match, please. BxB Hulk has been moving around better than normal lately and Yosuke Santa Maria, given her current motivation

levels, fits perfectly in this opener. Hopefully, this is just a showcase for the Mochizuki Dojo kids, all of whom have been killing it lately.

It’d be nice to see them get the win over an established team like the Tribe Vanguard trio, so that’s what I’m predicting. Prediction: Mochizuki Dojo 

 

 

 

Watch online

 

 

Waiting finish converting video

 

 

Server 1

 

 

 

 

 

 

 

 

 

 

 

 

 

Server 2

 

 

 

 

 

 

 

 

 

 

 

 

 

 

 

Uploaded By Site DX-TV.com

 

 

 

 

 

Watch Dragon Gate of Destiny PPV 2019 Japan 720p

 

 

 

 

 

 

Recommended For Free

 

 

earn4files.com

clicknupload.org

 

Download with high speed with Premium account

 

 

 

 

nitroflare.com

 

 

 

rapidgator.net

 

 

 

uploaded.net

 

 

 

uploadgig.com

 

 

 

 

 

 

Leave a Reply

Your email address will not be published. Required fields are marked *

This site uses Akismet to reduce spam. Learn how your comment data is processed.