Watch Dragon Gate of Destiny 720p 2019 ENG

Watch Dragon Gate of Destiny 11/04/2019 English 720p DX-TV

 

 

 

 

 

dx-tv.com

 

 

 

 

Watch Dragon Gate of Destiny 720p 2019 ENG

 

 

 

 

 

Complete name : Dragon Gate of Destiny 11-04-2019 English 720p WEB x264 DX-TV.mp4
Format : MPEG-4
Format profile : Base Media / Version 2
Codec ID : mp42 (mp42)
File size : 4.70 GiB
Duration : 4 h 17 min
Overall bit rate : 2 610 kb/s
Codirector : codirector
Video
ID : 1
Format : AVC
Duration : 4 h 17 min
Bit rate : 2 495 kb/s
Width : 1 280 pixels
Height : 720 pixels
Display aspect ratio : 16:9
Frame rate mode : Constant
Frame rate : 30.000 FPS
Color space : YUV
Chroma subsampling : 4:2:0
Bit depth : 8 bits
Scan type : Progressive
Bits/(Pixel*Frame) : 0.090
Stream size : 4.49 GiB (96%)
Language : English
Codec configuration box : avcC

Audio
ID : 2
Format : AAC LC
Codec ID : mp4a-40-2
Duration : 4 h 17 min
Bit rate mode : Constant
Bit rate : 128 kb/s
Channel(s) : 2 channels
Channel layout : L R
Sampling rate : 48.0 kHz
Frame rate : 46.875 FPS (1024 SPF)
Compression mode : Lossy
Stream size : 236 MiB (5%)
Title : Stereo
Language : English
Default : Yes

 

 

 

 

 

 

Watch online

 

 

Waiting finish converting video

 

 

Server 1

 

 

 

 

 

 

 

 

 

 

 

 

 

Server 2

 

 

 

 

 

 

 

 

 

 

 

 

 

 

 

Uploaded By Site DX-TV.com

 

 

 

 

 

Watch Dragon Gate of Destiny 720p 2019 ENG

 

 

 

 

 

 

Recommended For Free

 

 

 

 

earn4files.com

 

 

 

 

 

clicknupload.org

 

 

 

 

 

Download with high speed with Premium account

 

 

 

 

nitroflare.com

 

 

 

rapidgator.net

 

 

 

uploaded.net

 

 

 

uploadgig.com

 

 

 

 

 

 

Leave a Reply

Your email address will not be published. Required fields are marked *

This site uses Akismet to reduce spam. Learn how your comment data is processed.