Watch Dragon Gate Fantastic Gate 2020 12 27 Day 12 DX-TV

Watch Dragon Gate Fantastic Gate 2020 12 27 Day 12 DX-TV

Dragon Gate Fantastic Gate

 Dragon Gate Fantastic Gate

 

Download Links with premium High Speed   

 

 

nitroflare.com

http://shrt10.com/mF8RxkN

 

 

rapidgator.net

http://shrt10.com/EPWdSdRzM

 

 

uploaded.net

http://shrt10.com/sYzBbO

 

 

uploadgig.com

http://shrt10.com/8x2HiLO2D

 

Watch online

 

Server 1

 

 

 

 

Dragon Gate Fantastic Gate

 

 

 

 

Server-2

 

 

 

 

watch now

 

 

Uploaded By Site DX-TV.com

 

 

 

[su_expand more_text=”Show More Info” less_text=”Close all Info” height=”50″ text_color=”#000000″ link_color=”#e25f8b” link_style=”button” more_icon=”icon: arrow-down” less_icon=”icon: arrow-up”]

Complete name : 2020.12.27.Dragon.Gate.Fantastic.Gate.2020.Day.12.mp4
Format : MPEG-4
Format profile : Base Media
Codec ID : isom
File size : 3.16 GiB
Duration : 2 h 50 min
Overall bit rate mode : Variable
Overall bit rate : 2 651 kb/s
Writing application : Lavf58.64.100

Video
ID : 1
Format : AVC
Duration : 2 h 50 min
Bit rate mode : Variable
Bit rate : 2 453 kb/s
Maximum bit rate : 2 703 kb/s
Width : 1 280 pixels
Height : 720 pixels
Display aspect ratio : 16:9
Frame rate mode : Variable
Original frame rate : 30.000 FPS
Standard : NTSC
Color space : YUV
Chroma subsampling : 4:2:0
Bit depth : 8 bits
Scan type : Progressive
Bits/(Pixel*Frame) : 0.089
Stream size : 2.93 GiB (93%)
Color range : Limited
Color primaries : BT.709
Transfer characteristics : BT.709
Matrix coefficients : BT.709
Codec configuration box : avcC

Audio
ID : 2
Format : AAC LC
Format/Info : Advanced Audio Codec Low Complexity
Codec ID : mp4a-40-2
Duration : 2 h 50 min
Bit rate mode : Constant
Bit rate : 192 kb/s
Channel(s) : 2 channels
Channel layout : L R
Sampling rate : 48.0 kHz
Frame rate : 46.875 FPS (1024 SPF)
Compression mode : Lossy
Stream size : 231 MiB (7%)
Default : Yes
Alternate group : 1

 

[/su_expand]

 

https://dx-tv.com/

Leave a Reply

Your email address will not be published. Required fields are marked *

This site uses Akismet to reduce spam. Learn how your comment data is processed.