Watch Dragon Gate 2021 01 09 New Year Gate Day 1 DX-TV

Watch Dragon Gate 2021 01 09 New Year Gate Day 1 DX-TV

Watch Dragon Gate 2021

 Watch Dragon Gate 2021

 

Download Links with premium High Speed   

 

 

nitroflare.com

http://shrt10.com/kHeqc1X

 

 

rapidgator.net

http://shrt10.com/LwjapO8qK

 

 

uploaded.net

http://shrt10.com/cxasqS

 

 

uploadgig.com

http://shrt10.com/Is05D2

 

Watch Dragon Gate online

 

Server 1

 

 

 

 

Watch Dragon Gate 2021

 

 

 

 

Server-2

 

 

 

 

watch now

 

 

Uploaded By Site DX-TV.com

 

 

Complete name : 2021.01.09.Dragon.Gate.New.Year.Gate.Day.1.mp4
Format : MPEG-4
Format profile : Base Media
Codec ID : isom
File size : 2.95 GiB
Duration : 2 h 38 min
Overall bit rate mode : Variable
Overall bit rate : 2 659 kb/s
Writing application : Lavf58.64.100

Watch Dragon Gate

Video
ID : 1
Format : AVC
Format/Info : Advanced Video
Duration : 2 h 38 min
Bit rate mode : Variable
Bit rate : 2 461 kb/s
Maximum bit rate : 2 703 kb/s
Width : 1 280 pixels
Height : 720 pixels
Display aspect ratio : 16:9
Frame rate mode : Variable
Frame rate : 29.970 FPS
Standard : NTSC
Color space : YUV
Chroma subsampling : 4:2:0
Bit depth : 8 bits
Scan type : Progressive
Bits/(Pixel*Frame) : 0.089
Stream size : 2.73 GiB (93%)
Color range : Limited
Color primaries : BT.709
Transfer characteristics : BT.709
Matrix coefficients : BT.709
Codec configuration box : avc

Watch Dragon Gate

Audio
ID : 2
Format : AAC LC
Format/Info : Advanced Audio
Codec ID : mp4a-40-2
Duration : 2 h 38 min
Bit rate mode : Constant
Bit rate : 192 kb/s
Channel(s) : 2 channels
Channel layout : L R
Sampling rate : 48.0 kHz
Frame rate : 46.875 FPS
Compression mode : Lossy
Stream size : 215 MiB (7%)
Default : Yes
Alternate group : 1

 Dragon Gate

 

https://dx-tv.com/

Leave a Reply

Your email address will not be published. Required fields are marked *

This site uses Akismet to reduce spam. Learn how your comment data is processed.