Watch Dragon Gate 2018 11 04 The Gate Of Destiny 2018 720p WEB H33B

Watch Dragon Gate 2018 11 04 The Gate Of Destiny 2018 720p WEB H33B

 

 

 


 

 

dx-tv.com

 

 

 

 

Complete name : Dragon.Gate.2018.11.04.The.Gate.Of.Destiny.2018.720p.WEB.h264-H33B.mp4
Format : MPEG-4
Format profile : Base Media
File size : 3.32 GiB
Duration : 3 h 42 min
Overall bit rate : 2 134 kb/s
Writing application : Lavf57.25.100

Video
ID : 1
Format : AVC
Format/Info : Advanced Video Codec
Codec ID/Info : Advanced Video Coding
Duration : 3 h 42 min
Bit rate : 1 999 kb/s
Width : 1 280 pixels
Height : 720 pixels
Display aspect ratio : 16:9
Frame rate mode : Constant
Frame rate : 30.000 FPS
Color space : YUV
Chroma subsampling : 4:2:0
Bit depth : 8 bits
Scan type : Progressive
Bits/(Pixel*Frame) : 0.072
Stream size : 3.11 GiB (94%)

Audio
ID : 2
Format : AAC
Format/Info : Advanced Audio Codec
Format profile : LC
Codec ID : mp4a-40-2
Duration : 3 h 42 min
Bit rate mode : Constant
Bit rate : 128 kb/s
Channel(s) : 2 channels
Channel positions : Front: L R
Sampling rate : 48.0 kHz
Frame rate : 46.875 FPS (1024 SPF)
Compression mode : Lossy
Stream size : 204 MiB (6%)
Default : Yes
Alternate group : 1

 

 

 

Watch Dragon Gate 2018 11 04 The Gate Of Destiny 2018 720p WEB H33B

 

 

 

 

Watch online

 

 

Waiting finish converting video

 

 

Server 1

 

 

 

 

 

 

 

 

 

 

 

 

Server 2

 

 

 

 


 

 

 

 

 

Uploaded By Site DX-TV.com

 

open rar file to see this password

 

 

The password : DX-TV.com

 

 

 

 

Uploaded.net + rapidgator.net

 

 

 

 

 

 
http://shrt10.com/V9DIu8a

 

 

http://shrt10.com/HrJA
 

 

 

 

 

 

Watch Dragon Gate 2018 11 04 The Gate Of Destiny 2018 720p WEB H33B

Leave a Reply

This site uses Akismet to reduce spam. Learn how your comment data is processed.