Watch Dragon Gate 2018 10 21 The Gate Of Victory Day 11 720p WEB H33B

Watch Dragon Gate 2018 10 21 The Gate Of Victory Day 11 720p WEB H33B

 

 

 

 


 

 

 

dx-tv.com

 

 

 

 

 

 
Complete name : Dragon.Gate.2018.10.21.The.Gate.Of.Victory.2018.Day.11.720p.WEB.h264-H33B.mp4
Format : MPEG-4
Format profile : Base Media
File size : 2.24 GiB
Duration : 2 h 30 min
Overall bit rate : 2 136 kb/s
Writing application : Lavf57.56.100

Video
ID : 1
Format : AVC
Format/Info : Advanced Video Codec
Codec ID : avc1
Codec ID/Info : Advanced Video Coding
Duration : 2 h 30 min
Duration_LastFrame : 1 ms
Bit rate : 2 001 kb/s
Width : 1 280 pixels
Height : 720 pixels
Display aspect ratio : 16:9
Frame rate mode : Constant
Frame rate : 30.000 FPS
Color space : YUV
Chroma subsampling : 4:2:0
Bit depth : 8 bits
Scan type : Progressive
Bits/(Pixel*Frame) : 0.072
Stream size : 2.10 GiB (94%)

Audio
ID : 2
Format : AAC
Format/Info : Advanced Audio Codec
Format profile : LC
Codec ID : mp4a-40-2
Duration : 2 h 30 min
Duration_LastFrame : 1 ms
Bit rate mode : Constant
Bit rate : 128 kb/s
Channel(s) : 2 channels
Channel positions : Front: L R
Sampling rate : 48.0 kHz
Frame rate : 46.875 FPS (1024 SPF)
Compression mode : Lossy
Stream size : 138 MiB (6%)
Default : Yes
Alternate group : 1

 

 

Watch Dragon Gate 2018 10 21 The Gate Of Victory Day 11 720p WEB H33B

 

 

 

 

Watch online

 

 

Waiting finish converting video

 

 

Server 1

 

 

 

 

 

 

 

 

 

 

 

 

Server 2

 

 

 

 

 

 

 

 

 

Uploaded By Site DX-TV.com

 

 

 

open rar file to see this password

 

 

The password : DX-TV.com

 

 

Uploaded.net + rapidgator.net

 

 

 

http://shrt10.com/VqMS3

 

 

 

 
http://shrt10.com/dIUH
 

 

 

Watch Dragon Gate 2018 10 21 The Gate Of Victory Day 11 720p WEB H33B