Watch Dragon Gate 2018 03 03 Champion Gate In Osaka Day 1 mp4

Watch Dragon Gate 2018 03 03 Champion Gate In Osaka Day 1 mp4

 

 

 

s

 

 

 

wwe

 

 

 

 

 

 

Complete name : Dragon Gate – 2018.03.03 – Champion Gate In Osaka Day 1.mp4
Format : MPEG-4
Format profile : Base Media / Version 2
Codec ID : mp42
File size : 1.19 GiB
Duration : 3h 1mn
Overall bit rate : 938 Kbps
Encoded date : UTC 2018-03-03 16:21:35
Tagged date : UTC 2018-03-03 16:21:58

Video
ID : 1
Format : AVC
Format/Info : Advanced Video Codec
Codec ID : avc1
Codec ID/Info : Advanced Video Coding
Duration : 3h 1mn
Bit rate mode : Variable
Bit rate : 805 Kbps
Width : 854 pixels
Height : 480 pixels
Display aspect ratio : 16:9
Frame rate mode : Variable
Frame rate : 29.970 fps
Minimum frame rate : 1.035 fps
Maximum frame rate : 32.258 fps
Color space : YUV
Chroma subsampling : 4:2:0
Bit depth : 8 bits
Scan type : Progressive
Bits/(Pixel*Frame) : 0.066
Stream size : 1.02 GiB (86%)
Encoded date : UTC 2018-03-03 16:21:35
Tagged date : UTC 2018-03-03 16:21:58

Audio
ID : 2
Format : AAC
Format/Info : Advanced Audio Codec
Format profile : LC
Codec ID : 40
Duration : 3h 1mn
Bit rate mode : Variable
Bit rate : 128 Kbps
Channel(s) : 2 channels
Channel positions : Front: L R
Sampling rate : 48.0 KHz
Compression mode : Lossy
Stream size : 167 MiB (14%)
Encoded date : UTC 2018-03-03 16:21:35
Tagged date : UTC 2018-03-03 16:21:58

 

 

 

 

 

 

 

 

 

 

 

 

 

 

 

 

 

 

Watch Dragon Gate 2018 03 03 Champion Gate In Osaka Day 1 mp4

 

 

 

 

Watch online

 

 

Waiting finish converting video

 

 

Server 1

 

 

 

 

 

 

 

 

 

 

 

 

 

 

 

 

 

Server 2

 

 

 

 

 

 


 

 

 

 

 

 

 

Uploaded By Site DX-TV.com

 

 

 

open rar file to see this password

 

 

 

 

The password is : DX-TV.com

 

 

 

 

 

 

Uploaded.net + rapidgator.net

 

 

 

 

 

 

 

http://shrt10.com/Q5W4VG

 

 

 

http://shrt10.com/xUfJIkQ 

 

 

 

 

 

 

 

 

 

Watch Dragon Gate 2018 03 03 Champion Gate In Osaka Day 1 mp4