Watch /Download WWE NXT 2018 07 25 720p WWE Network HDTV Star

Watch /Download WWE NXT 2018 07 25 720p WWE Network HDTV Star

 

 

 

 


 

 

 

dx-tv.com

 

 

 

 

 

 

 

 

Complete name : WWE.NXT.2018.07.25.720p.WWE.Network.HDTV.x264-Star.mp4
Format : MPEG-4
Format profile : Base Media / Version 2
Codec ID : mp42
File size : 1.92 GiB
Duration : 58mn 2s
Overall bit rate : 4 725 Kbps
Encoded date : UTC 2018-07-26 02:05:22
Tagged date : UTC 2018-07-26 02:05:22

Video
ID : 1
Format : AVC
Format/Info : Advanced Video Codec
Codec ID : avc1
Codec ID/Info : Advanced Video Coding
Duration : 58mn 2s
Bit rate mode : Variable
Bit rate : 4 500 Kbps
Width : 1 280 pixels
Height : 720 pixels
Display aspect ratio : 16:9
Frame rate mode : Constant
Frame rate : 29.970 fps
Color space : YUV
Chroma subsampling : 4:2:0
Bit depth : 8 bits
Scan type : Progressive
Bits/(Pixel*Frame) : 0.163
Stream size : 1.84 GiB (96%)

Audio
ID : 2
Format : AAC
Format/Info : Advanced Audio Codec
Format profile : LC
Codec ID : 40
Duration : 58mn 2s
Bit rate mode : Variable
Bit rate : 192 Kbps
Channel(s) : 2 channels
Channel positions : Front: L R
Sampling rate : 48.0 KHz
Compression mode : Lossy
Stream size : 79.7 MiB (4%)
Title : Stereo
Encoded date : UTC 2018-07-26 02:05:22
Tagged date : UTC 2018-07-26 02:05:22

 

 

 

 

 

 

Watch /Download WWE NXT 2018 07 25 720p WWE Network HDTV Star

 

 

 

 

Watch online

 

 

Waiting finish converting video

 

 

Server 1

 

 

 

 

 

 

 

 

 

 

 

 

 

 

 

 

 

Server 2

 

 

 

 

 

 

 

 


 

 

 

 

 

 

 

Uploaded By Site DX-TV.com

 

 

 

open rar file to see this password

 

 

 

 

The password : DX-TV.com

 

 

 

 

Uploaded.net + rapidgator.net

 

 

 

 

 

 

http://shrt10.com/2PvlHIhS

 

 

 

 

 

http://shrt10.com/Li1zn4

 

 

 

 

 

 

 

Watch /Download WWE NXT 2018 07 25 720p WWE Network HDTV Star