Watch /Download WWE 205 Live 2018 07 24 WEB HEEL /720p

Watch /Download WWE 205 Live 2018 07 24 WEB HEEL /720p

 

 

 

 


 

 

 

dx-tv.com

 

 

 

 

 

 
Complete name : WWE.205.Live.2018.07.24.WEB.h264-HEEL.mp4
Format : MPEG-4
Format profile : Base Media
Codec ID : isom
File size : 633 MiB
Duration : 49mn 3s
Overall bit rate : 1 806 Kbps
Writing application : Lavf58.2.103

Video
ID : 1
Format : AVC
Format/Info : Advanced Video Codec
Codec ID : avc1
Codec ID/Info : Advanced Video Coding
Duration : 49mn 3s
Bit rate mode : Constant
Bit rate : 1 704 Kbps
Width : 896 pixels
Height : 504 pixels
Display aspect ratio : 16:9
Frame rate mode : Variable
Frame rate : 29.970 fps
Minimum frame rate : 24.174 fps
Maximum frame rate : 29.970 fps
Color space : YUV
Chroma subsampling : 4:2:0
Bit depth : 8 bits
Scan type : Progressive
Bits/(Pixel*Frame) : 0.126
Stream size : 598 MiB (94%)

Audio
ID : 2
Format : AAC
Format/Info : Advanced Audio Codec
Format profile : LC
Codec ID : 40
Duration : 49mn 3s
Bit rate mode : Variable
Bit rate : 93.5 Kbps
Maximum bit rate : 105 Kbps
Channel(s) : 2 channels
Channel positions : Front: L R
Sampling rate : 48.0 KHz
Compression mode : Lossy
Stream size : 32.8 MiB (5%)
Language : English

 

 

 

 

 
Complete name : WWE.205.Live.2018.07.24.720p.WEB.h264-HEEL.mp4
Format : MPEG-4
Format profile : Base Media
Codec ID : isom
File size : 1.54 GiB
Duration : 49mn 3s
Overall bit rate : 4 503 Kbps

Video
ID : 1
Format : AVC
Duration : 49mn 3s
Bit rate mode : Constant
Bit rate : 4 372 Kbps
Width : 1 280 pixels
Height : 720 pixels
Display aspect ratio : 16:9
Frame rate mode : Variable
Frame rate : 29.970 fps
Minimum frame rate : 24.174 fps
Maximum frame rate : 29.970 fps
Color space : YUV
Chroma subsampling : 4:2:0
Bit depth : 8 bits
Scan type : Progressive
Bits/(Pixel*Frame) : 0.158
Stream size : 1.50 GiB (97%)

Audio
ID : 2
Format : AAC
Format profile : LC
Codec ID : 40
Duration : 49mn 3s
Bit rate mode : Variable
Bit rate : 125 Kbps
Maximum bit rate : 131 Kbps
Channel(s) : 2 channels
Channel positions : Front: L R
Sampling rate : 48.0 KHz
Compression mode : Lossy
Stream size : 44.0 MiB (3%)
Language : English

 

 

 

 

 

Watch /Download WWE 205 Live 2018 07 24 WEB HEEL /720p

 

 

 

 

Watch online

 

 

Waiting finish converting video

 

 

Server 1

 

 

 

 

 

 

 

 

 

 

 

 

 

 

 

 

Server 2

 

 

 

 

 

 


 

 

 

 

 

 

Uploaded By Site DX-TV.com

 

 

 

open rar file to see this password

 

 

 

 

The password : DX-TV.com

 

 

 

 

400p+720p

 

 

 

 

 

Uploaded.net + rapidgator.net

 

 

 

 

 

 
http://shrt10.com/Ph4UDg7
 

 

 

http://shrt10.com/qnVP
 

 

 

http://shrt10.com/9gMl
 

 

 

http://shrt10.com/PJ8xA

 

 

 

 

 

 

 

Watch /Download WWE 205 Live 2018 07 24 WEB HEEL /720p

Support HVIPS

Please Disable Ad-Block To View This site. just help us to continue this work