Watch /Download The Ultimate Fighter S26E01 720p HDTV lulz /1080i

Watch /Download The Ultimate Fighter S26E01 720p HDTV lulz /1080i

 

 

 

 

 

 

wwe

 

 

 

 

 

General
Complete name : The.Ultimate.Fighter.S26E01.720p.HDTV.x264-lulz.mkv
Format : Matroska
Format version : Version 4 / Version 2
File size : 1.16 GiB
Duration : 43 min 56 s
Overall bit rate : 3 765 kb/s

Video
ID : 1
Format : AVC
Format/Info : Advanced Video Codec
Format settings, CABAC : Yes
Codec ID : V_MPEG4/ISO/AVC
Duration : 43 min 56 s
Bit rate : 3 570 kb/s
Width : 1 280 pixels
Height : 720 pixels
Display aspect ratio : 16:9
Frame rate mode : Constant
Frame rate : 50.000 FPS
: No

Audio
ID : 2
Format : AC-3
Format/Info : Audio Coding 3
Format settings, Endianness : Big
Codec ID : A_AC3
Duration : 43 min 56 s
Bit rate mode : Constant
Bit rate : 192 kb/s
Channel(s) : 2 channels
Channel positions : Front: L R
Sampling rate : 48.0 kHz
Frame rate : 31.250 FPS (1536 SPF)
Bit depth : 16 bits
Compression mode : Lossy
Delay relative to video : 10 ms
Stream size : 60.4 MiB (5%)
Language : English
Service kind : Complete Main
Default : Yes
 

General
Complete name : The.Ultimate.Fighter.S26E01.1080i.HDTV.MPEG2-lulz.mkv
Format : Matroska
File size : 4.47 GiB
Duration : 43 min 56 s
Overall bit rate : 14.6 Mb/s

Video

Format : MPEG Video
Codec ID : V_MPEG2
Duration : 43 min 56 s
Bit rate mode : Variable
Bit rate : 14.4 Mb/s
Maximum bit rate : 24.0 Mb/s
Width : 1 920 pixels
Height : 1 080 pixels
Display aspect ratio : 16:9
Frame rate : 25.000 FPS
Color space : YUV
Chroma subsampling : 4:2:0
Bit depth : 8 bits
Scan type : Interlaced
Scan order : Top Field First
Compression mode : Lossy
GOP, Open/Closed : Open
Stream size : 4.41 GiB (99%)

Audio
Format : AC-3
Format/Info : Audio Coding 3
Format settings, Endianness : Big
Codec ID : A_AC3
Duration : 43 min 56 s
Bit rate mode : Constant
Bit rate : 192 kb/s
Channel(s) : 2 channels

 

 

 

 

 

 

 Watch /Download The Ultimate Fighter S26E01 720p HDTV lulz /1080i

 

 

 

Watch online

 

 

Waiting finish converting video

 

 

Server 1

 

 

 

 

 

 

 

 

 

 

 

 

 

 

 

 

 

 

 

 

Server 2

 

 

 

 

 

 

 

 

 

 


 

 

 

 

 

 

Uploaded By Site DX-TV.com

 

 

 

open rar file to see this password

 

 

 

 

The password is : DX-TV.com

 

 

 

 

400p+1080i

 

 

 

Uploaded.net

 

 

 

 

 

http://shink.in/qPHhn

 

 

 

http://shink.in/naf0A

 

 

 

 

 

rapidgator.net

 

 

 

 

 

http://shink.in/1E7Z6

 

 

 

 

http://shink.in/nwdgT

 

 

 

 

Watch /Download The Ultimate Fighter S26E01 720p HDTV lulz /1080i