Watch / Download Style Battle 2018 04 07 S1 Finale 720p WEB iNDYHEEL

Watch / Download Style Battle 2018 04 07 S1 Finale 720p WEB iNDYHEEL

 

 

 

 

 

wwe

 

 

 

 

 

 

Complete name : Style.Battle.2018.04.07.S1.Finale.720p.WEB.h264-iNDYHEEL.mp4
Format : MPEG-4
Format profile : Base Media
Codec ID : isom
File size : 2.40 GiB
Duration : 2h 24mn
Overall bit rate : 2 374 Kbps
Encoded date : UTC 2018-04-08 15:57:39
Tagged date : UTC 2018-04-08 15:57:39

Video
ID : 1
Format : AVC
Format/Info : Advanced Video Codec
Format profile : High@L3.1
Codec ID : avc1
Codec ID/Info : Advanced Video Coding
Duration : 2h 24mn
Bit rate mode : Variable
Bit rate : 2 238 Kbps
Maximum bit rate : 4 444 Kbps
Width : 1 280 pixels
Height : 720 pixels
Display aspect ratio : 16:9
Frame rate mode : Variable
Frame rate : 29.865 fps
Minimum frame rate : 0.109 fps
Maximum frame rate : 30.303 fps
Color space : YUV
Chroma subsampling : 4:2:0
Bit depth : 8 bits
Scan type : Progressive
Bits/(Pixel*Frame) : 0.081
Stream size : 2.26 GiB (94%)
Tagged date : UTC 2018-04-08 16:01:19

Audio
ID : 2
Format : AAC
Format/Info : Advanced Audio Codec
Format profile : LC
Codec ID : 40
Duration : 2h 24mn
Bit rate mode : Variable
Bit rate : 128 Kbps
Maximum bit rate : 144 Kbps
Channel(s) : 2 channels
Channel positions : Front: L R
Sampling rate : 48.0 KHz
Compression mode : Lossy
Stream size : 133 MiB (5%)
Tagged date : UTC 2018-04-08 16:01:19

 

 

 

 

 

Watch / Download Style Battle 2018 04 07 S1 Finale 720p WEB iNDYHEEL

 

 

 

 

Watch online

 

 

Waiting finish converting video

 

 

Server 1

 

 

 

 

 

 

 

 

 

 

 

 

 

 

 

 

 

Server 2

 

 

 

 

 

 

 


 

 

 

 

 

Uploaded By Site DX-TV.com

 

 

 

open rar file to see this password

 

 

 

 

The password is : DX-TV.com

 

 

 

 

 

 

Uploaded.net + rapidgator.net

 

 

 

 

 

http://shrt10.com/GpBbJES

 

 

 

 

http://shrt10.com/rZduE

 

 

 

 

 

 

 

Watch / Download Style Battle 2018 04 07 S1 Finale 720p WEB iNDYHEEL