Watch /Download Invicta FC 30 WEB DL mp4

Watch /Download Invicta FC 30 WEB DL mp4

 

 

 

 


 

 

dx-tv.com

 

 

 

 

 

 
Complete name : Invicta.FC.30.WEB-DL.mp4
Format : MPEG-4
Format profile : Base Media
Codec ID : isom
File size : 2.43 GiB
Duration : 3h 48mn
Overall bit rate : 1 524 Kbps

Video
ID : 1
Format : AVC
Format/Info : Advanced Video Codec
Codec ID/Info : Advanced Video Coding
Duration : 3h 48mn
Bit rate mode : Variable
Bit rate : 1 437 Kbps
Width : 960 pixels
Height : 540 pixels
Display aspect ratio : 16:9
Frame rate mode : Constant
Frame rate : 29.970 fps
Color space : YUV
Chroma subsampling : 4:2:0
Bit depth : 8 bits
Scan type : Progressive
Bits/(Pixel*Frame) : 0.092
Stream size : 2.29 GiB (94%)

Audio
ID : 2
Format : AAC
Format/Info : Advanced Audio Codec
Format profile : LC
Codec ID : 40
Duration : 3h 48mn
Bit rate mode : Constant
Bit rate : 77.6 Kbps
Channel(s) : 2 channels
Channel positions : Front: L R
Sampling rate : 44.1 KHz
Compression mode : Lossy
Stream size : 127 MiB (5%)

 

 

 

 

 

Watch /Download Invicta FC 30 WEB DL mp4

 

 

 

 

Watch online

 

 

Waiting finish converting video

 

 

Server 1

 

 

 

 

 

 

 

 

 

 

 

 

 

 

 

Server 2

 

 

 

 

 

 

 


 

 

 

 

 

Uploaded By Site DX-TV.com

 

 

 

open rar file to see this password

 

 

 

 

The password : DX-TV.com

 

 

 

 

Uploaded.net + rapidgator.net

 

 

 

 

 

http://shrt10.com/FtYCM

 

 

 

 

http://shrt10.com/5a2gOaai

 

 

 

 

 

 

 

 

Watch /Download Invicta FC 30 WEB DL mp4