Watch / Download CZW Welcome to the Combat Zone 2018 iPPV 720p WEB DL

Watch / Download CZW Welcome to the Combat Zone 2018 iPPV 720p WEB DL

 

 

 

 

 

 

wwe

 

 

 

 

 

Complete name : CZW.Welcome.to.the.Combat.Zone.2018.iPPV.720p.WEB-DL.mp4
Format : MPEG-4
Format profile : Base Media
Codec ID : isom
File size : 2.58 GiB
Duration : 2h 18mn
Overall bit rate : 2 661 Kbps
Writing application : Lavf56.40.101

Video
ID : 1
Format : AVC
Format/Info : Advanced Video Codec
Codec ID : avc1
Codec ID/Info : Advanced Video Coding
Duration : 2h 18mn
Bit rate mode : Variable
Bit rate : 2 588 Kbps
Width : 1 280 pixels
Height : 720 pixels
Display aspect ratio : 16:9
Frame rate mode : Variable
Frame rate : 29.954 fps
Original frame rate : 29.970 fps
Minimum frame rate : 0.329 fps
Maximum frame rate : 29.970 fps
Color space : YUV
Chroma subsampling : 4:2:0
Bit depth : 8 bits
Scan type : Progressive
Bits/(Pixel*Frame) : 0.094
Stream size : 2.51 GiB (97%)

Audio
ID : 2
Format : AAC
Format/Info : Advanced Audio Codec
Format profile : LC
Codec ID : 40
Duration : 2h 18mn
Bit rate mode : Variable
Bit rate : 66.15 Kbps
Maximum bit rate : 67.5 Kbps
Channel(s) : 2 channels
Channel positions : Front: L R
Sampling rate : 48.0 KHz
Compression mode : Lossy
Stream size : 65.4 MiB (2%)

 

 

 

 

 

 

 

 
1. Kit Osbourne, Dan Barry, Dan O’Hare, Ace Austin & Josh Briggs vs. Peter Avalon, Suede Thompson, Douglas James, Matt Knicks & Stevie Fierce

2. CZW WIRED Title: KTB vs. MJF (c)

3. Flamita & Bandito vs. oVe (Dave & Jake Crist) vs. Myron Reed & Trey Miguel

4. Team Janelope (Joey Janela & Penelope Ford) vs. Joey Ryan & Laura James

5. David Starr vs. Juice Robinson

6. Ace Romero vs. Zachary Wentz vs. Jason Cade vs. Adam Brooks

7. Joe Gacy vs. Jeff Cobb

8. CZW World Title: Ethan Page vs. Rickey Shane Page (c)

9. Dezmond Xavier vs. Will Ospreay
 

 

 

 

 

 

 

 

Watch / Download CZW Welcome to the Combat Zone 2018 iPPV 720p WEB DL

 

 

 

 

Watch online

 

 

Waiting finish converting video

 

 

Server 1

 

 

 

 

 

 

 

 

 

 

 

 

 

 

 

 

Server 2

 

 

 

 

 

 

 

 

 

 

 

 

 

 

Uploaded By Site DX-TV.com

 

 

 

open rar file to see this password

 

 

 

 

The password is : DX-TV.com

 

 

 

 

720p

 

 

 

 

 

Uploaded.net + rapidgator.net

 

 

 

 

 

 

http://shrt10.com/WGW3

 

 

 

 

http://shrt10.com/iBtI2V

 

 

 

 

 

 

 

 

 

 

Watch / Download CZW Welcome to the Combat Zone 2018 iPPV 720p WEB DL

WE need Staff/ Uploader/ Capper best quality For DX-TV
For More INFO Send PM for Admin on Email : [email protected]

X