Watch Derek Chisora Vs Joseph Parker PPV 01 May 2021 1080p

Watch Derek Chisora Vs Joseph Parker PPV / undercard 2021 05 01 720p/ 1080p DX-TV

Watch Derek Chisora Vs Joseph Parker 

 Watch Derek Chisora Vs Joseph Parker PPV

 

all links 720p and 1080p

 

Download Links with High Speed


Dopapk

 

 

Show Links

 

http://shrt10.com/5NqVf9
http://shrt10.com/wyCB73
http://shrt10.com/2mOvsAvHv
http://shrt10.com/cTnePuVl
http://shrt10.com/w8N8wIifL
http://shrt10.com/eA4UoMTfS
http://shrt10.com/2IcJSt2

 

[collapse]

 

 

Nitroflare

 

 

Show Links

 

http://shrt10.com/9uzjnR
http://shrt10.com/KbfHECK
http://shrt10.com/h8NU6ZvB
http://shrt10.com/0fNHvVQe
http://shrt10.com/bq26NsR
http://shrt10.com/CLPQQo
http://shrt10.com/1SxDKUjv

 

[collapse]

 

 

Rapidgator

 

 

Show Links

 

http://shrt10.com/qYql8
http://shrt10.com/B69ZxLQib
http://shrt10.com/9kYXZbo
http://shrt10.com/Jug2YxRC
http://shrt10.com/LAGVr
http://shrt10.com/KppoGu
http://shrt10.com/CmrTLhxv3

 

[collapse]

 

 

Uploaded

 

 

Show Links

 

http://shrt10.com/gX66bYn
http://shrt10.com/nD2b0UDhb
http://shrt10.com/AIO4URv8J
http://shrt10.com/CMcQCNd

 

[collapse]

 

 

Watch online

 

Server 1

 

 

 

 

Watch Derek Chisora Vs Joseph Parker 

watch now

watch now

Watch Derek Chisora Vs Joseph Parker 

 

 

 

 

Server-2

 

 

 

 

watch now

Watch Derek Chisora Vs Joseph Parker 

watch now

Watch Derek Chisora Vs Joseph Parker 

 

 

 

|Server-3

 

 

 

 

watch now

watch now

Watch Derek Chisora Vs Joseph Parker 

watch now

 

 

Uploaded By Site DX-TV.com

 

 

Show Info This Show

 

 

Complete name : Boxing.2021.05.01.Katie.Taylor.Vs.Natasha.Jonas.PPV.1080p.HDTV.H264-DARKSPORT.mkv
Format : Matroska
Format version : Version 4
File size : 4.99 GiB
Duration : 49 min 13 s
Overall bit rate : 14.5 Mb/s

Watch Derek Chisora Vs Joseph Parker 

Video
ID : 1
Format : AVC
Duration : 49 min 13 s
Bit rate : 13.8 Mb/s
Width : 1 920 pixels
Height : 1 080 pixels
Display aspect ratio : 16:9
Frame rate mode : Constant
Frame rate : 25.000 FPS
Color space : YUV
Chroma subsampling : 4:2:2
Bit depth : 8 bits
Scan type : Interlaced
Language : English
Default : Yes
Forced : No
Color range : Limited
Color primaries : BT.709
Transfer characteristics : BT.709
Matrix coefficients : BT.709

Audio
ID : 2
Format : MPEG Audio
Format profile : Layer 2
Codec ID : A_MPEG/L2
Codec ID/Hint : MP2
Duration : 49 min 13 s
Bit rate mode : Constant
Bit rate : 384 kb/s
Channel(s) : 2 channels
Sampling rate : 48.0 kHz
Compression mode : Lossy
Delay relative to video : -1 s 90 ms
Stream size : 135 MiB (3%)
Language : English
Default : Yes
Forced : No

Watch Derek Chisora Vs Joseph Parker 

Complete name : Boxing.2021.05.01.Derek.Chisora.Vs.Joseph.Parker.PPV.1080p.HDTV.H264-DARKSPORT.mkv
Format : Matroska
Format version : Version 4
File size : 7.20 GiB
Duration : 1 h 10 min
Overall bit rate : 14.5 Mb/s

Video
ID : 1
Format : AVC
Duration : 1 h 10 min
Bit rate : 13.9 Mb/s
Width : 1 920 pixels
Height : 1 080 pixels
Display aspect ratio : 16:9
Frame rate mode : Constant
Frame rate : 25.000 FPS
Color space : YUV
Chroma subsampling : 4:2:2
Bit depth : 8 bits
Scan type : Interlaced
Language : English
Default : Yes
Forced : No
Color range : Limited
Color primaries : BT.709
Transfer characteristics : BT.709
Matrix coefficients : BT.709

Derek Chisora Vs Joseph Parker 

Audio
ID : 2
Format : MPEG Audio
Format profile : Layer 2
Codec ID : A_MPEG/L2
Codec ID/Hint : MP2
Duration : 1 h 10 min
Bit rate mode : Constant
Bit rate : 384 kb/s
Channel(s) : 2 channels
Sampling rate : 48.0 kHz
Compression mode : Lossy
Delay relative to video : -770 ms
Stream size : 195 MiB (3%)
Language : English
Default : Yes
Forced : No

Complete name : Boxing.2021.05.01.Chris.Eubank.Jr.Vs.Marcus.Morrison.1080p.HDTV.H264-DARKSPORT.mkv
Format : Matroska
Format version : Version 4
File size : 5.55 GiB
Duration : 54 min 36 s
Overall bit rate : 14.5 Mb/s

Video
ID : 1
Format : AVC
Duration : 54 min 36 s
Bit rate : 13.9 Mb/s
Width : 1 920 pixels
Height : 1 080 pixels
Display aspect ratio : 16:9
Frame rate mode : Constant
Frame rate : 25.000 FPS
Color space : YUV
Chroma subsampling : 4:2:2
Bit depth : 8 bits
Scan type : Interlaced
Language : English
Default : Yes
Forced : No
Color range : Limited
Color primaries : BT.709
Transfer characteristics : BT.709
Matrix coefficients : BT.709

Derek Chisora Vs Joseph Parker 

Audio
ID : 2
Format : MPEG Audio
Format version : Version 1
Codec ID : A_MPEG/L2
Codec ID/Hint : MP2
Duration : 54 min 36 s
Bit rate mode : Constant
Bit rate : 384 kb/s
Channel(s) : 2 channels
Sampling rate : 48.0 kHz
Compression mode : Lossy
Delay relative to video : -1 s 450 ms
Stream size : 150 MiB (3%)
Language : English
Default : Yes
Forced : No

Complete name : Boxing.2021.05.01.Campbell.Hatton.Vs.Levi.Dunn.1080p.HDTV.H264-DARKSPORT.mkv
Format : Matroska
Format version : Version 4
File size : 2.20 GiB
Duration : 21 min 41 s
Overall bit rate : 14.5 Mb/s

Derek Chisora Vs Joseph Parker 

Video
ID : 1
Format : AVC
Duration : 21 min 41 s
Bit rate : 13.9 Mb/s
Width : 1 920 pixels
Height : 1 080 pixels
Display aspect ratio : 16:9
Frame rate mode : Constant
Frame rate : 25.000 FPS
Color space : YUV
Chroma subsampling : 4:2:2
Bit depth : 8 bits
Scan type : Interlaced
Bits/(Pixel*Frame) : 0.267
Stream size : 2.10 GiB (95%)
Language : English
Default : Yes
Forced : No
Color range : Limited
Color primaries : BT.709
Transfer characteristics : BT.709
Matrix coefficients : BT.709

Audio
ID : 2
Format : MPEG Audio
Format version : Version 1
Codec ID : A_MPEG/L2
Codec ID/Hint : MP2
Duration : 21 min 41 s
Bit rate mode : Constant
Bit rate : 384 kb/s
Channel(s) : 2 channels
Sampling rate : 48.0 kHz
Compression mode : Lossy
Delay relative to video : -890 ms
Stream size : 59.6 MiB (3%)
Language : English
Default : Yes
Forced : No

Derek Chisora Vs Joseph Parker 

 

[collapse]

 

 

https://dx-tv.com/

1 thought on “Watch Derek Chisora Vs Joseph Parker PPV 01 May 2021 1080p

Comments are closed.