Watch Defiant Wrestling 2018 03 19 Lights Out 720p WEB iNDYHEEL

Watch Defiant Wrestling 2018 03 19 Lights Out 720p WEB iNDYHEEL

 

 

 

 

 

wwe

 

 

 

 

 

 

 
Complete name : Defiant.Wrestling.2018.03.19.Lights.Out.720p.WEB.h264-iNDYHEEL.mp4
Format : MPEG-4
Format profile : Base Media
Codec ID : isom
File size : 2.19 GiB
Duration : 2h 25mn
Overall bit rate : 2 156 Kbps
Writing application : Lavf58.2.103

Video
ID : 1
Format : AVC
Format/Info : Advanced Video Codec
Format profile : [email protected]
Codec ID : avc1
Codec ID/Info : Advanced Video Coding
Duration : 2h 25mn
Bit rate mode : Variable
Bit rate : 2 021 Kbps
Width : 1 280 pixels
Height : 720 pixels
Display aspect ratio : 16:9
Frame rate mode : Constant
Frame rate : 25.000 fps
Color space : YUV
Chroma subsampling : 4:2:0
Bit depth : 8 bits
Scan type : Progressive
Bits/(Pixel*Frame) : 0.088
Stream size : 2.06 GiB (94%)
Audio
ID : 2
Format : AAC
Format/Info : Advanced Audio Codec
Format profile : LC
Codec ID : 40
Duration : 2h 25mn
Bit rate mode : Variable
Bit rate : 128 Kbps
Maximum bit rate : 139 Kbps
Channel(s) : 2 channels
Channel positions : Front: L R
Sampling rate : 44.1 KHz
Compression mode : Lossy
Stream size : 134 MiB (6%)

 

 

 

 

 

 

 

 

 

Watch Defiant Wrestling 2018 03 19 Lights Out 720p WEB iNDYHEEL

 

 

 

 

Watch online

 

 

Waiting finish converting video

 

 

Server 1

 

 

 

 

 

 

 

 

 

 

 

 

 

 

 

 

 

 

 

 

Server 2

 

 

 

 

 

 

 

 

 

 

 

 

 

 

 

 

 

 

 

Uploaded By Site DX-TV.com

 

 

 

open rar file to see this password

 

 

 

 

The password is : DX-TV.com

 

 

 

 

 

 

 

 

Uploaded.net + rapidgator.net

 

 

 

 

 

 

http://shrt10.com/5eeApU

 

 

 

 

 

 

http://shrt10.com/P5pTN

 

 

 

 

 

 

 

 

Watch Defiant Wrestling 2018 03 19 Lights Out 720p WEB iNDYHEEL